conanlcg
超级版主

[2014] [其他] [喜剧] [HDTV/HDrip] 分手大师 The.Breakup.Guru.2014.720p.HDRip.x264.AC3-SeeHD 2.38GB

-->

帖子完整标题:分手大师 The.Breakup.Guru.2014.720p.HDRip.x264.AC3-SeeHD 2.38GB




◎译  名 The Breakup Guru
◎片  名 分手大师
◎年  代 2014
◎产  地 中国大陆
◎类  别 喜剧 / 爱情
◎语  言 汉语普通话 / 克里奥尔语 / 英语 / 日语 / 上海话
◎上映日期 2014-06-27(中国大陆)
◎IMDb评分 4.2/10 from 430 users
◎IMDb链接 https://www.imdb.com/title/tt3667798
◎豆瓣评分 5.0/10 from 248840 users
◎豆瓣链接 https://movie.douban.com/subject/24879858/
◎片  长 116分钟
◎导  演 俞白眉 Baimei Yu / 邓超 Chao Deng
◎编  剧 俞白眉 Baimei Yu
◎主  演 邓超 Chao Deng
      杨幂 Mi Yang
      古力娜扎 Gulnazar
      栾元晖 Yuanhui Luan
      秦越 Yue Qin
      许可嘉 Kejia Xu
      梁超 Chao Liang
      赵曼竹 Manzu Zhao
      孙俪 Betty Sun
      柳岩 Yan Liu
      谢楠 Nan Xie


◎标  签 喜剧 | 邓超 | 杨幂 | 爱情 | 国产电影 | 2014 | 中国 | 中国电影

◎简  介

  梅远贵(邓超 饰)是一个情感经历极为丰富的男人,虽然有过这样那样的失败恋情,却也帮他铺就了一条通往荣华复归的康庄大道。现如今的梅远贵生活在首都北京,与其精英团队操办起帮人分手的奇葩业务,无论你有着怎样的感情和生活,只要票子给足,他总会高效率地完成任务。爱情那么虚幻的东西太不可靠,还是钱最让他放心。这一天,梅照例接了一单生意,那就是帮客户甩掉美丽女孩叶小春(杨幂 饰)。小春是一个自强不息的北漂姑娘,她渴望可以让之依靠休息的港湾,同时也为了美好的明天奋力打拼。原本踌躇满志的梅远贵,从和小春接触的第一天起,他们彼此的人生就发生了改变……
  本片根据同名人气话剧改编。

◎获奖情况

  第6届金扫帚奖(2015)
  最令人失望影片
  最令人失望女演员 杨幂

  第1届豆瓣电影年度榜单(2014)
  7月最受关注电影(提名)

  第5届豆瓣电影鑫像奖(2015)
  豆渣单元 最渣影片(华语)
  豆渣单元 最渣导演(华语) 邓超
Format : Matroska
Format version : Version 4 / Version 2
File size : 2.38 GiB
Duration : 1h 55mn
Overall bit rate : 2 951 Kbps
Encoded date : UTC 2010-02-22 21:41:31
Writing application : mkvmerge v5.9.0 (\'On The Loose\') built on Dec 9 2012 15:37:01
Writing library : libebml v1.3.0 + libmatroska v1.4.0

Video
ID : 1
Format : AVC
Format/Info : Advanced Video Codec
Format profile : [email protected]
Format settings, CABAC : Yes
Format settings, ReFrames : 4 frames
Muxing mode : Header stripping
Codec ID : V_MPEG4/ISO/AVC
Duration : 1h 55mn
Bit rate : 2 500 Kbps
Width : 1 280 pixels
Height : 542 pixels
Display aspect ratio : 2.35:1
Frame rate mode : Constant
Frame rate : 23.976 fps
Color space : YUV
Chroma subsampling : 4:2:0
Bit depth : 8 bits
Scan type : Progressive
Bits/(Pixel*Frame) : 0.150
Stream size : 1.97 GiB (83%)
Writing library : x264 core 116 r2074 2641b9e
Encoding settings : cabac=1 / ref=3 / deblock=1:-2:-2 / analyse=0x3:0x113 / me=hex / subme=7 / psy=1 / psy_rd=1.00:0.00 / mixed_ref=1 / me_range=16 / chroma_me=1 / trellis=1 / 8x8dct=1 / cqm=0 / deadzone=21,11 / fast_pskip=1 / chroma_qp_offset=-2 / threads=12 / sliced_threads=0 / nr=0 / decimate=0 / interlaced=0 / bluray_compat=0 / constrained_intra=0 / bframes=3 / b_pyramid=2 / b_adapt=1 / b_bias=0 / direct=1 / weightb=1 / open_gop=0 / weightp=2 / keyint=250 / keyint_min=23 / scenecut=40 / intra_refresh=0 / rc_lookahead=40 / rc=abr / mbtree=1 / bitrate=2500 / ratetol=1.0 / qcomp=0.60 / qpmin=0 / qpmax=69 / qpstep=4 / ip_ratio=1.40 / aq=1:1.00
Language : English
Default : Yes
Forced : No

Audio
ID : 2
Format : AC-3
Format/Info : Audio Coding 3
Mode extension : CM (complete main)
Format settings, Endianness : Big
Muxing mode : Header stripping
Codec ID : A_AC3
Duration : 1h 55mn
Bit rate mode : Constant
Bit rate : 448 Kbps
Channel(s) : 6 channels
Channel positions : Front: L C R, Side: L R, LFE
Sampling rate : 48.0 KHz
Bit depth : 16 bits
Compression mode : Lossy
Stream size : 370 MiB (15%)
Default : Yes
Forced : No





1 个附件 售价 大小 下载 时间

The.Breakup.Guru.2014.720p.HDRip.x264.AC3-SeeHD.torrent 0 金币 24.47K 350 次 1月前

#1楼
发帖时间:2019-11-14 20:40:12   |   回复数:2
kola13
一派掌门
感谢分享
1月前 #2楼
911degrees
隐世仙人♂
非常感谢,谢谢分享
29天前 #3楼
游客组