conanlcg
超级版主

[2018] [欧美] [剧情] [BD-720P] 乔茜 Josie.2018.720p.BluRay.x264-ViRGO 4.37GB

-->

帖子完整标题:乔茜 Josie.2018.720p.BluRay.x264-ViRGO 4.37GB




◎译  名 乔茜 / Huntsville
◎片  名 Josie
◎年  代 2018
◎产  地 美国
◎类  别 剧情 / 惊悚
◎语  言 英语
◎上映日期 2018-03-16(美国)
◎IMDb评分 5.5/10 from 2400 users
◎IMDb链接 https://www.imdb.com/title/tt4682780
◎豆瓣评分 5.4/10 from 174 users
◎豆瓣链接 https://movie.douban.com/subject/26850895/
◎片  长 100分钟
◎导  演 Eric England
◎编  剧 Anthony Ragnone II
◎主  演 苏菲·特纳 Sophie Turner
      杰克·基默 Jack Kilmer
      柯特·富勒 Kurt Fuller
      罗宾·巴特利特 Robin Bartlett
      迪伦·麦克德莫特 Dylan McDermott
      珍妮弗·普雷迪格 Jennifer Prediger
      Mickey Faerch
      Jessa Zarubica


◎标  签 美国 | 剧情 | 美国电影 | 2018 | 苏菲·特纳 | 惊悚 | SophieTurner | 人性

◎简  介

  影片故事围绕神秘女子洁丝(苏菲·特纳饰)和一个孤独男子马库斯(杰克·基默饰),以及邻居汉克(迪伦·麦克德莫特饰)之间的三角恋情展开。
Video
ID : 1
Format : AVC
Format/Info : Advanced Video Codec
Format profile : [email protected]
Format settings : CABAC / 5 Ref Frames
Format settings, CABAC : Yes
Format settings, Reference frames : 5 frames
Codec ID : V_MPEG4/ISO/AVC
Duration : 1 h 27 min
Bit rate : 5 639 kb/s
Width : 1 280 pixels
Height : 544 pixels
Display aspect ratio : 2.35:1
Frame rate mode : Constant
Frame rate : 23.976 (24000/1001) FPS
Color space : YUV
Chroma subsampling : 4:2:0
Bit depth : 8 bits
Scan type : Progressive
Bits/(Pixel*Frame) : 0.338
Stream size : 3.44 GiB (79%)
Writing library : x264 core 157 r2970 5493be8
Encoding settings : cabac=1 / ref=5 / deblock=1:0:0 / analyse=0x3:0x113 / me=umh / subme=7 / psy=1 / psy_rd=1.00:0.00 / mixed_ref=1 / me_range=16 / chroma_me=1 / trellis=1 / 8x8dct=1 / cqm=0 / deadzone=21,11 / fast_pskip=0 / chroma_qp_offset=-2 / threads=12 / lookahead_threads=2 / sliced_threads=0 / nr=0 / decimate=1 / interlaced=0 / bluray_compat=0 / constrained_intra=0 / bframes=3 / b_pyramid=2 / b_adapt=1 / b_bias=0 / direct=3 / weightb=1 / open_gop=0 / weightp=2 / keyint=240 / keyint_min=23 / scenecut=40 / intra_refresh=0 / rc_lookahead=50 / rc=2pass / mbtree=1 / bitrate=5639 / ratetol=1.0 / qcomp=0.60 / qpmin=0 / qpmax=69 / qpstep=4 / cplxblur=20.0 / qblur=0.5 / ip_ratio=1.40 / aq=1:1.00
Language : English
Default : Yes
Forced : No

Audio
ID : 2
Format : DTS
Format/Info : Digital Theater Systems
Codec ID : A_DTS
Duration : 1 h 27 min
Bit rate mode : Constant
Bit rate : 1 509 kb/s
Channel(s) : 6 channels
Channel layout : C L R Ls Rs LFE
Sampling rate : 48.0 kHz
Frame rate : 93.750 FPS (512 SPF)
Bit depth : 24 bits
Compression mode : Lossy
Stream size : 943 MiB (21%)
Language : English
Default : Yes
Forced : No

Text
ID : 3
Format : UTF-8
Codec ID : S_TEXT/UTF8
Codec ID/Info : UTF-8 Plain Text
Duration : 1 h 26 min
Bit rate : 51 b/s
Count of elements : 1220
Stream size : 32.4 KiB (0%)
Language : English
Default : No
Forced : No

Menu
00:00:00.000 : en:00:00:00.000
00:04:20.218 : en:00:04:20.218
00:11:17.010 : en:00:11:17.010
00:17:33.761 : en:00:17:33.761
00:21:06.390 : en:00:21:06.390
00:31:35.060 : en:00:31:35.060
00:38:02.489 : en:00:38:02.489
00:46:46.470 : en:00:46:46.470
00:53:33.168 : en:00:53:33.168
01:05:01.981 : en:01:05:01.981
01:10:24.804 : en:01:10:24.804
01:22:22.688 : en:01:22:22.688





1 个附件 售价 大小 下载 时间

Josie.2018.720p.BluRay.x264-ViRGO.torrent 0 金币 44.42K 364 次 1月前

#1楼
发帖时间:2019-11-14 21:13:29   |   回复数:1
911degrees
隐世仙人♂
非常感谢,谢谢分享
29天前 #2楼
游客组