conanlcg
超级版主

[更 早] [日本] [WEB-1080P] 极道之妻2/极道之妻 2 Yakuza.Ladies.2.1987.JAPANESE.1080p.AMZN.WEBRip.DDP2.0.x264-SbR 6.3

-->

帖子完整标题:极道之妻2/极道之妻 2 Yakuza.Ladies.2.1987.JAPANESE.1080p.AMZN.WEBRip.DDP2.0.x264-SbR 6.37GB




◎译  名 极道之妻2 / 极道之妻 2
◎片  名 極道の妻たちII
◎年  代 1987
◎产  地 日本
◎语  言 日语
◎上映日期 1987-10-10(日本)
◎IMDb评分 5.9/10 from 17 users
◎IMDb链接 https://www.imdb.com/title/tt0225882
◎豆瓣评分 0/10 from 0 users
◎豆瓣链接 https://movie.douban.com/subject/1966053/
◎片  长 119分钟
◎导  演 土橋亨
◎编  剧 家田荘子(原作) / 高田宏治
◎主  演 十朱幸代
      かたせ梨乃
      竹内力


◎标  签 情色 | 極道の妻たち | 日本 | 日本电影 | 情色电影 | 犯罪 | 十朱幸代 | 土桥亨

◎简  介

  重宗是黑社会头目,在外声称帮建筑业老板扶助事业,却是从事非法行业。他专门欺负善良百姓,建筑业老板看中的地,重宗就负责逼人搬离家园,因而埋下杀机。一天,重宗夜里被枪杀,重宗妻到警局协助调查,才知帮派间许多内情待解....
Video
ID : 1
Format : AVC
Format/Info : Advanced Video Codec
Format profile : [email protected]
Format settings : CABAC / 3 Ref Frames
Format settings, CABAC : Yes
Format settings, Reference frames : 3 frames
Codec ID : V_MPEG4/ISO/AVC
Duration : 1 h 59 min
Bit rate mode : Variable
Bit rate : 7 500 kb/s
Maximum bit rate : 11.2 Mb/s
Width : 1 920 pixels
Height : 1 080 pixels
Display aspect ratio : 16:9
Frame rate mode : Constant
Frame rate : 23.976 (24000/1001) FPS
Color space : YUV
Chroma subsampling : 4:2:0
Bit depth : 8 bits
Scan type : Progressive
Bits/(Pixel*Frame) : 0.151
Stream size : 6.26 GiB (98%)
Writing library : x264 core 118
Encoding settings : cabac=1 / ref=3 / deblock=1:0:0 / analyse=0x1:0x111 / me=umh / subme=10 / psy=1 / psy_rd=1.00:0.00 / mixed_ref=1 / me_range=24 / chroma_me=1 / trellis=2 / 8x8dct=0 / cqm=0 / deadzone=21,11 / fast_pskip=1 / chroma_qp_offset=-2 / threads=8 / sliced_threads=0 / nr=0 / decimate=1 / interlaced=0 / bluray_compat=0 / constrained_intra=0 / bframes=2 / b_pyramid=0 / b_adapt=2 / b_bias=0 / direct=3 / weightb=1 / open_gop=0 / weightp=2 / keyint=48 / keyint_min=25 / scenecut=0 / intra_refresh=0 / rc_lookahead=0 / rc=2pass / mbtree=1 / bitrate=7500 / ratetol=1.0 / qcomp=0.50 / qpmin=6 / qpmax=51 / qpstep=4 / cplxblur=20.0 / qblur=0.5 / vbv_maxrate=11250 / vbv_bufsize=15000 / nal_hrd=vbr / ip_ratio=1.40 / aq=1:1.00
Default : Yes
Forced : No

Audio
ID : 2
Format : E-AC-3
Format/Info : Enhanced AC-3
Commercial name : Dolby Digital Plus
Codec ID : A_EAC3
Duration : 1 h 59 min
Bit rate mode : Constant
Bit rate : 128 kb/s
Channel(s) : 2 channels
Channel layout : L R
Sampling rate : 48.0 kHz
Frame rate : 31.250 FPS (1536 SPF)
Compression mode : Lossy
Stream size : 109 MiB (2%)
Title : Japanese
Language : Japanese
Service kind : Complete Main
Default : No
Forced : No

Text
ID : 3
Format : UTF-8
Codec ID : S_TEXT/UTF8
Codec ID/Info : UTF-8 Plain Text
Duration : 1 h 54 min
Bit rate : 37 b/s
Count of elements : 1115
Stream size : 31.9 KiB (0%)
Language : English
Default : Yes
Forced : No





1 个附件 售价 大小 下载 时间

Yakuza.Ladies.2.1987.JAPANESE.1080p.AMZN.WEBRip.DDP2.0.x264-SbR.torrent 0 金币 32.38K 1582 次 1月前

#1楼
发帖时间:2019-11-14 21:27:26   |   回复数:2
liyouchai
隐世仙人♂
谢谢楼主分享资源
1月前 #2楼
911degrees
隐世仙人♂
非常感谢,谢谢分享
29天前 #3楼
游客组