conanlcg
超级版主

[更 早] [日本] [WEB-1080P] 极道之妻2/极道之妻 2 Yakuza.Ladies.2.1987.JAPANESE.1080p.WEBRip.x264-VXT 2.28GB

-->

帖子完整标题:极道之妻2/极道之妻 2 Yakuza.Ladies.2.1987.JAPANESE.1080p.WEBRip.x264-VXT 2.28GB




◎译  名 极道之妻2 / 极道之妻 2
◎片  名 極道の妻たちII
◎年  代 1987
◎产  地 日本
◎语  言 日语
◎上映日期 1987-10-10(日本)
◎IMDb评分 5.9/10 from 17 users
◎IMDb链接 https://www.imdb.com/title/tt0225882
◎豆瓣评分 0/10 from 0 users
◎豆瓣链接 https://movie.douban.com/subject/1966053/
◎片  长 119分钟
◎导  演 土橋亨
◎编  剧 家田荘子(原作) / 高田宏治
◎主  演 十朱幸代
      かたせ梨乃
      竹内力


◎标  签 情色 | 極道の妻たち | 日本 | 日本电影 | 情色电影 | 犯罪 | 十朱幸代 | 土桥亨

◎简  介

  重宗是黑社会头目,在外声称帮建筑业老板扶助事业,却是从事非法行业。他专门欺负善良百姓,建筑业老板看中的地,重宗就负责逼人搬离家园,因而埋下杀机。一天,重宗夜里被枪杀,重宗妻到警局协助调查,才知帮派间许多内情待解....
Video
ID : 1
Format : AVC
Format/Info : Advanced Video Codec
Format profile : [email protected]
Format settings : CABAC / 4 Ref Frames
Format settings, CABAC : Yes
Format settings, Reference frames : 4 frames
Codec ID : avc1
Codec ID/Info : Advanced Video Coding
Duration : 1 h 59 min
Bit rate : 2 500 kb/s
Width : 1 916 pixels
Height : 1 040 pixels
Display aspect ratio : 1.85:1
Frame rate mode : Constant
Frame rate : 23.976 (23976/1000) FPS
Color space : YUV
Chroma subsampling : 4:2:0
Bit depth : 8 bits
Scan type : Progressive
Bits/(Pixel*Frame) : 0.052
Stream size : 2.09 GiB (92%)
Writing library : x264 core 152 r2851M ba24899
Encoding settings : cabac=1 / ref=4 / deblock=1:-1:-1 / analyse=0x3:0x113 / me=umh / subme=9 / psy=1 / psy_rd=1.00:0.15 / mixed_ref=1 / me_range=24 / chroma_me=1 / trellis=2 / 8x8dct=1 / cqm=0 / deadzone=21,11 / fast_pskip=1 / chroma_qp_offset=-3 / threads=16 / lookahead_threads=4 / sliced_threads=0 / nr=0 / decimate=1 / interlaced=0 / bluray_compat=0 / constrained_intra=0 / bframes=3 / b_pyramid=2 / b_adapt=2 / b_bias=0 / direct=3 / weightb=1 / open_gop=0 / weightp=2 / keyint=250 / keyint_min=25 / scenecut=40 / intra_refresh=0 / rc_lookahead=50 / rc=2pass / mbtree=1 / bitrate=2500 / ratetol=1.0 / qcomp=0.60 / qpmin=0 / qpmax=69 / qpstep=4 / cplxblur=20.0 / qblur=0.5 / vbv_maxrate=31250 / vbv_bufsize=31250 / nal_hrd=none / filler=0 / ip_ratio=1.40 / aq=3:1.00
Encoded date : UTC 2019-11-14 13:58:55
Tagged date : UTC 2019-11-14 13:58:55
Codec configuration box : avcC

Audio
ID : 2
Format : AAC LC
Format/Info : Advanced Audio Codec Low Complexity
Codec ID : mp4a-40-2
Duration : 1 h 59 min
Duration_LastFrame : -11 ms
Bit rate mode : Constant
Bit rate : 224 kb/s
Channel(s) : 2 channels
Channel layout : L R
Sampling rate : 48.0 kHz
Frame rate : 46.875 FPS (1024 SPF)
Compression mode : Lossy
Stream size : 191 MiB (8%)
Language : Japanese
Default : Yes
Alternate group : 1
Encoded date : UTC 2019-11-14 13:58:55
Tagged date : UTC 2019-11-14 13:58:55





1 个附件 售价 大小 下载 时间

Yakuza.Ladies.2.1987.JAPANESE.1080p.WEBRip.x264-VXT.torrent 0 金币 23.40K 1225 次 21天前

#1楼
发帖时间:2019-11-14 23:23:04   |   回复数:5
Jasongreat
武林盟主
老片子了吧,谢谢分享了
21天前 #2楼
911degrees
隐世仙人♂
非常感谢,谢谢分享
21天前 #3楼
blj2007
一派掌门
感谢分享,辛苦啦
21天前 #4楼
tanchoohoon
武林盟主
感谢楼主的无私分享
21天前 #5楼
121076
一派掌门
很喜欢,感谢啦~
20天前 #6楼
游客组