conanlcg
超级版主

[更 早] [欧美] [喜剧] [WEB-1080P] 小曼哈顿/大城小恋 Little.Manhattan.2005.1080p.AMZN.WEBRip.DDP5.1.x264-monkee 5.76GB

-->

帖子完整标题:小曼哈顿/大城小恋 Little.Manhattan.2005.1080p.AMZN.WEBRip.DDP5.1.x264-monkee 5.76GB




◎译  名 小曼哈顿 / 大城小恋 / 情窦初开
◎片  名 Little Manhattan
◎年  代 2005
◎产  地 美国
◎类  别 喜剧 / 爱情
◎语  言 英语
◎上映日期 2005-09-30
◎IMDb评分 7.5/10 from 21420 users
◎IMDb链接 https://www.imdb.com/title/tt0412922
◎豆瓣评分 8.2/10 from 10684 users
◎豆瓣链接 https://movie.douban.com/subject/1433156/
◎片  长 84 分钟
◎导  演 马克·莱温 Mark Levin
◎编  剧 珍妮佛·弗莱基特 Jennifer Flackett
◎主  演 乔什·哈切森 Josh Hutcherson
      查理·雷 Charlie Ray
      布莱德利·惠特福德 Bradley Whitford
      辛西娅·尼克松 Cynthia Nixon
      威利·加森 Willie Garson
      托妮·帕塔诺 Tonye Patano
      乔什·帕斯 Josh Pais
      约翰·多塞特 John Dossett
      塔利亚·巴尔萨姆 Talia Balsam
      乔纳·梅耶森 Jonah Meyerson
      Michael Chaturantabut
      Christopher Wynkoop
      蒂摩西·亚当斯 Timothy Adams
      杰丝·威克斯勒 Jess Weixler
      保罗·鲍格才 Paul Borghese
      Sal Darigo
      George Riddle
      陈凌 Lynn Chen
      Connor Hutcherson
      亚历克斯·崔贝克 Alex Trebek
      杰奎琳·洛弗尔 Jacqueline Lovell
      Zo? Raye
      Deanna Dys
      多米尼克·凯利 Dominique Kelley
      奥斯汀·马乔斯 Austin Majors
      伊斯梅尔·彼得·卡西利亚斯三世 Ismael Peter Casillas III
      Kevin Watson
      Jason Woodruff
      Marc Yarrish


◎标  签 美国 | 爱情 | 初恋 | 儿童 | 美国电影 | 喜剧 | 童年 | 青春

◎简  介

  和所有小学五年纪的小男生一样,住在纽约的10岁男孩Gabe(乔什·哈切森 Josh Hutcherson 饰)正遇到自己的小问题。首先,父母正在闹离婚,却因为美国法律不得不依然同住在一个屋檐下。其次,虽然之前Gabe总觉得同龄的女孩是这个世界上最可怕的生物之一,认为只要被她们触碰到身上机会长虱子,甚至相信只要被女孩碰了就会有倒霉的事情发生。但命运弄人,在参加空手道训练课时,他竟然坠入爱河,对分配给他的搭档兼他的同班同学Rosemary(查理·雷 Charlie Ray 饰)产生了好感。
  Gabe是否能够挽回父母的感情?他又会因为喜欢Rosemary做出什么疯狂的举动呢?
Video
ID : 1
Format : AVC
Format/Info : Advanced Video Codec
Format profile : [email protected]
Format settings : CABAC / 4 Ref Frames
Format settings, CABAC : Yes
Format settings, Reference frames : 4 frames
Codec ID : V_MPEG4/ISO/AVC
Duration : 1 h 30 min
Bit rate mode : Variable
Bit rate : 8 514 kb/s
Maximum bit rate : 15.0 Mb/s
Width : 1 920 pixels
Height : 816 pixels
Display aspect ratio : 2.35:1
Frame rate mode : Constant
Frame rate : 23.976 (24000/1001) FPS
Color space : YUV
Chroma subsampling : 4:2:0
Bit depth : 8 bits
Scan type : Progressive
Bits/(Pixel*Frame) : 0.227
Stream size : 5.36 GiB (93%)
Default : Yes
Forced : No
Color range : Limited
Color primaries : BT.709
Transfer characteristics : BT.709
Matrix coefficients : BT.709

Audio
ID : 2
Format : E-AC-3
Format/Info : Enhanced AC-3
Commercial name : Dolby Digital Plus
Codec ID : A_EAC3
Duration : 1 h 30 min
Bit rate mode : Constant
Bit rate : 640 kb/s
Channel(s) : 6 channels
Channel layout : L R C LFE Ls Rs
Sampling rate : 48.0 kHz
Frame rate : 31.250 FPS (1536 SPF)
Compression mode : Lossy
Stream size : 412 MiB (7%)
Language : English
Service kind : Complete Main
Default : Yes
Forced : No

Text #1
ID : 3
Format : UTF-8
Codec ID : S_TEXT/UTF8
Codec ID/Info : UTF-8 Plain Text
Duration : 1 h 28 min
Bit rate : 79 b/s
Count of elements : 1900
Stream size : 51.7 KiB (0%)
Language : English
Default : No
Forced : No

Text #2
ID : 4
Format : UTF-8
Codec ID : S_TEXT/UTF8
Codec ID/Info : UTF-8 Plain Text
Duration : 1 h 29 min
Bit rate : 81 b/s
Count of elements : 1962
Stream size : 53.1 KiB (0%)
Title : SDH
Language : English
Default : No
Forced : No

Text #3
ID : 5
Format : UTF-8
Codec ID : S_TEXT/UTF8
Codec ID/Info : UTF-8 Plain Text
Duration : 1 h 29 min
Bit rate : 105 b/s
Count of elements : 1217
Stream size : 68.8 KiB (0%)
Language : Arabic
Default : No
Forced : No

Text #4
ID : 6
Format : UTF-8
Codec ID : S_TEXT/UTF8
Codec ID/Info : UTF-8 Plain Text
Duration : 1 h 29 min
Bit rate : 66 b/s
Count of elements : 1128
Stream size : 43.2 KiB (0%)
Language : Danish
Default : No
Forced : No

Text #5
ID : 7
Format : UTF-8
Codec ID : S_TEXT/UTF8
Codec ID/Info : UTF-8 Plain Text
Duration : 1 h 25 min
Bit rate : 72 b/s
Count of elements : 1216
Stream size : 45.2 KiB (0%)
Language : Spanish
Default : No
Forced : No

Text #6
ID : 8
Format : UTF-8
Codec ID : S_TEXT/UTF8
Codec ID/Info : UTF-8 Plain Text
Duration : 1 h 25 min
Bit rate : 72 b/s
Count of elements : 1216
Stream size : 45.2 KiB (0%)
Language : Spanish
Default : No
Forced : No

Text #7
ID : 9
Format : UTF-8
Codec ID : S_TEXT/UTF8
Codec ID/Info : UTF-8 Plain Text
Duration : 1 h 29 min
Bit rate : 55 b/s
Count of elements : 993
Stream size : 36.5 KiB (0%)
Language : Finnish
Default : No
Forced : No

Text #8
ID : 10
Format : UTF-8
Codec ID : S_TEXT/UTF8
Codec ID/Info : UTF-8 Plain Text
Duration : 1 h 29 min
Bit rate : 54 b/s
Count of elements : 1257
Stream size : 35.5 KiB (0%)
Language : French
Default : No
Forced : No

Text #9
ID : 11
Format : UTF-8
Codec ID : S_TEXT/UTF8
Codec ID/Info : UTF-8 Plain Text
Duration : 1 h 29 min
Bit rate : 73 b/s
Count of elements : 1215
Stream size : 47.7 KiB (0%)
Language : Italian
Default : No
Forced : No

Text #10
ID : 12
Format : UTF-8
Codec ID : S_TEXT/UTF8
Codec ID/Info : UTF-8 Plain Text
Duration : 1 h 25 min
Bit rate : 54 b/s
Count of elements : 1220
Stream size : 34.1 KiB (0%)
Language : Japanese
Default : No
Forced : No

Text #11
ID : 13
Format : UTF-8
Codec ID : S_TEXT/UTF8
Codec ID/Info : UTF-8 Plain Text
Duration : 1 h 25 min
Bit rate : 70 b/s
Count of elements : 1215
Stream size : 44.2 KiB (0%)
Language : Korean
Default : No
Forced : No

Text #12
ID : 14
Format : UTF-8
Codec ID : S_TEXT/UTF8
Codec ID/Info : UTF-8 Plain Text
Duration : 1 h 29 min
Bit rate : 65 b/s
Count of elements : 1212
Stream size : 43.0 KiB (0%)
Language : Norwegian Bokmal
Default : No
Forced : No

Text #13
ID : 15
Format : UTF-8
Codec ID : S_TEXT/UTF8
Codec ID/Info : UTF-8 Plain Text
Duration : 1 h 29 min
Bit rate : 62 b/s
Count of elements : 1199
Stream size : 41.0 KiB (0%)
Language : Dutch
Default : No
Forced : No

Text #14
ID : 16
Format : UTF-8
Codec ID : S_TEXT/UTF8
Codec ID/Info : UTF-8 Plain Text
Duration : 1 h 29 min
Bit rate : 65 b/s
Count of elements : 1218
Stream size : 42.9 KiB (0%)
Language : Polish
Default : No
Forced : No

Text #15
ID : 17
Format : UTF-8
Codec ID : S_TEXT/UTF8
Codec ID/Info : UTF-8 Plain Text
Duration : 1 h 29 min
Bit rate : 72 b/s
Count of elements : 1217
Stream size : 47.2 KiB (0%)
Language : Portuguese
Default : No
Forced : No

Text #16
ID : 18
Format : UTF-8
Codec ID : S_TEXT/UTF8
Codec ID/Info : UTF-8 Plain Text
Duration : 1 h 29 min
Bit rate : 72 b/s
Count of elements : 1217
Stream size : 47.2 KiB (0%)
Language : Portuguese
Default : No
Forced : No

Text #17
ID : 19
Format : UTF-8
Codec ID : S_TEXT/UTF8
Codec ID/Info : UTF-8 Plain Text
Duration : 1 h 29 min
Bit rate : 111 b/s
Count of elements : 1220
Stream size : 72.7 KiB (0%)
Language : Russian
Default : No
Forced : No

Text #18
ID : 20
Format : UTF-8
Codec ID : S_TEXT/UTF8
Codec ID/Info : UTF-8 Plain Text
Duration : 1 h 29 min
Bit rate : 58 b/s
Count of elements : 1057
Stream size : 38.3 KiB (0%)
Language : Swedish
Default : No
Forced : No

Text #19
ID : 21
Format : UTF-8
Codec ID : S_TEXT/UTF8
Codec ID/Info : UTF-8 Plain Text
Duration : 1 h 29 min
Bit rate : 68 b/s
Count of elements : 1215
Stream size : 45.0 KiB (0%)
Language : Turkish
Default : No
Forced : No

Text #20
ID : 22
Format : UTF-8
Codec ID : S_TEXT/UTF8
Codec ID/Info : UTF-8 Plain Text
Duration : 1 h 25 min
Bit rate : 57 b/s
Count of elements : 1217
Stream size : 36.3 KiB (0%)
Language : Chinese
Default : No
Forced : No

Text #21
ID : 23
Format : UTF-8
Codec ID : S_TEXT/UTF8
Codec ID/Info : UTF-8 Plain Text
Duration : 1 h 25 min
Bit rate : 57 b/s
Count of elements : 1217
Stream size : 36.3 KiB (0%)
Language : Chinese
Default : No
Forced : No





1 个附件 售价 大小 下载 时间

Little.Manhattan.2005.1080p.AMZN.WEBRip.DDP5.1.x264-monkee.torrent 0 金币 58.19K 420 次 1月前

#1楼
发帖时间:2019-11-15 00:34:33   |   回复数:1
911degrees
隐世仙人♂
非常感谢,谢谢分享
29天前 #2楼
游客组