conanlcg
超级版主

[2008] [欧美] [剧情] [WEB-1080P] 好运之人/幸运儿 The.Lucky.Ones.2008.1080p.AMZN.WEBRip.DDP5.1.x264-monkee 7.98GB

-->

帖子完整标题:好运之人/幸运儿 The.Lucky.Ones.2008.1080p.AMZN.WEBRip.DDP5.1.x264-monkee 7.98GB




◎译  名 好运之人 / 幸运儿 / 追梦旅程
◎片  名 The Lucky Ones
◎年  代 2008
◎产  地 美国
◎类  别 剧情 / 喜剧 / 战争
◎语  言 英语
◎上映日期 2008-03-10
◎IMDb评分 6.9/10 from 13003 users
◎IMDb链接 https://www.imdb.com/title/tt0981072
◎豆瓣评分 7.5/10 from 2931 users
◎豆瓣链接 https://movie.douban.com/subject/2074009/
◎片  长 Canada: 113 分钟
◎导  演 尼尔·博格 Neil Burger
◎编  剧 尼尔·博格 Neil Burger / Dirk Wittenborn
◎主  演 Tim Robbins
      Rachel McAdams
      Michael Pe?a


◎标  签 美国 | 公路 | 剧情 | 战争 | 美国电影 | 2008 | RachelMcAdams | 蒂姆·罗宾斯

◎简  介

  TK(迈克尔·佩纳 Michael Pena 饰)、切沃尔(蒂姆·罗宾斯 Tim Robbins 饰)和克莉(瑞秋·麦克亚当斯 Rachel McAdams 饰)是三个退役的军人,在和家乡与亲人阔别多年后,他们终于要登上回家的飞机了。在这个节骨眼上,他们所搭乘的飞机居然因故取消,归心似箭的三人决定合租一辆车,自驾回家。
  对于未来的生活,每个人心中都有自己的规划。然而,现实却并不如想象中的美好,TK和克莉的计划都没能完成,切沃尔多年等待等来的居然是妻子的离婚协议和儿子高额的抚养费,三个失魂落魄的成年人再次聚在了一次。为了摆脱失意的心情,三人决定来一个横穿美国之旅,这次突发奇想的旅程彻底粉碎了他们旧时的幻想,却也带来了新的际遇与希望。
Video
ID : 1
Format : AVC
Format/Info : Advanced Video Codec
Format profile : [email protected]
Format settings : CABAC / 4 Ref Frames
Format settings, CABAC : Yes
Format settings, Reference frames : 4 frames
Codec ID : V_MPEG4/ISO/AVC
Duration : 1 h 53 min
Bit rate mode : Constant
Bit rate : 10 000 kb/s
Width : 1 920 pixels
Height : 1 080 pixels
Display aspect ratio : 16:9
Frame rate mode : Constant
Frame rate : 23.976 (24000/1001) FPS
Color space : YUV
Chroma subsampling : 4:2:0
Bit depth : 8 bits
Scan type : Progressive
Bits/(Pixel*Frame) : 0.201
Stream size : 7.78 GiB (97%)
Title : The Lucky Ones bB00ITH9NHCB b1080pB
Default : Yes
Forced : No
Color range : Limited
Color primaries : BT.709
Transfer characteristics : BT.709
Matrix coefficients : BT.709

Audio
ID : 2
Format : E-AC-3
Format/Info : Enhanced AC-3
Commercial name : Dolby Digital Plus
Codec ID : A_EAC3
Duration : 1 h 53 min
Bit rate mode : Constant
Bit rate : 256 kb/s
Channel(s) : 6 channels
Channel layout : L R C LFE Ls Rs
Sampling rate : 48.0 kHz
Frame rate : 31.250 FPS (1536 SPF)
Compression mode : Lossy
Stream size : 207 MiB (3%)
Title : English
Language : English
Service kind : Complete Main
Default : Yes
Forced : No

Text
ID : 3
Format : UTF-8
Codec ID : S_TEXT/UTF8
Codec ID/Info : UTF-8 Plain Text
Duration : 1 h 49 min
Bit rate : 60 b/s
Count of elements : 1952
Stream size : 48.2 KiB (0%)
Title : English
Language : English
Default : No
Forced : No





1 个附件 售价 大小 下载 时间

The.Lucky.Ones.2008.1080p.AMZN.WEBRip.DDP5.1.x264-monkee.torrent 0 金币 80.45K 301 次 21天前

#1楼
发帖时间:2019-11-15 00:59:56   |   回复数:1
911degrees
隐世仙人♂
非常感谢,谢谢分享
21天前 #2楼
游客组