conanlcg
超级版主

[2008] [其他] [剧情] [WEB-1080P] 赛道娇娃/极速快感 The.Circuit.2008.1080p.AMZN.WEBRip.DDP2.0.x264-ABM 8.09GB

-->

帖子完整标题:赛道娇娃/极速快感 The.Circuit.2008.1080p.AMZN.WEBRip.DDP2.0.x264-ABM 8.09GB




◎译  名 赛道娇娃 / 极速快感(台)
◎片  名 The Circuit
◎年  代 2008
◎产  地 美国 / 加拿大
◎类  别 剧情 / 喜剧 / 动作
◎语  言 英语
◎上映日期 2008-12-01
◎IMDb评分 5.2/10 from 473 users
◎IMDb链接 https://www.imdb.com/title/tt1071780
◎豆瓣评分 0/10 from 0 users
◎豆瓣链接 https://movie.douban.com/subject/4238290/
◎导  演 彼得·维纳 Peter Werner
◎编  剧 Bill Hanley / Quinton Peeples
◎主  演 米歇尔·崔切伯格 Michelle Trachtenberg
      Bill Campbell
      德鲁·傅勒 Drew Fuller


◎标  签 美国 | 美国电影 | 青春 | 赛车 | 电影 | 励志 | MichelleTrachtenberg | 喜剧

◎简  介

  Al Shines,这位“US race car track circuit”的前冠军,自从失去赞助商罗宾,他的车队组建越发艰难。罗宾选择了Al的不成熟的女儿作为替代。
  Al Shines, former king of the US race car track circuit, has a hard time starting his own team, once he's fired by his sponsor Robin Cates. Robin hired Al's immature daughter Kylie Shines instead. She resents Al's inevitable 'absence' as a widowed father, as well as the reigning champion, equally young but professionally vetted Kid Walker. Kylie tries to prove herself against Kid while having an on-off affair with him. Cates's marketing strategy dictates his intentions to manipulate Walker and both Shines racers.
Video
ID : 1
Format : AVC
Format/Info : Advanced Video Codec
Format profile : [email protected]
Format settings : CABAC / 4 Ref Frames
Format settings, CABAC : Yes
Format settings, Reference frames : 4 frames
Codec ID : V_MPEG4/ISO/AVC
Duration : 1 h 29 min
Bit rate mode : Variable
Bit rate : 12.5 Mb/s
Maximum bit rate : 15.0 Mb/s
Width : 1 920 pixels
Height : 1 080 pixels
Display aspect ratio : 16:9
Frame rate mode : Constant
Frame rate : 23.976 (24000/1001) FPS
Color space : YUV
Chroma subsampling : 4:2:0
Bit depth : 8 bits
Scan type : Progressive
Bits/(Pixel*Frame) : 0.251
Stream size : 7.79 GiB (96%)
Language : English
Default : Yes
Forced : No
Color range : Limited
Color primaries : BT.709
Transfer characteristics : BT.709
Matrix coefficients : BT.709

Audio
ID : 2
Format : E-AC-3
Format/Info : Enhanced AC-3
Commercial name : Dolby Digital Plus
Codec ID : A_EAC3
Duration : 1 h 29 min
Bit rate mode : Constant
Bit rate : 224 kb/s
Channel(s) : 2 channels
Channel layout : L R
Sampling rate : 48.0 kHz
Frame rate : 31.250 FPS (1536 SPF)
Compression mode : Lossy
Stream size : 143 MiB (2%)
Language : English
Service kind : Complete Main
Default : Yes
Forced : No

Text
ID : 3
Format : UTF-8
Codec ID : S_TEXT/UTF8
Codec ID/Info : UTF-8 Plain Text
Language : English
Default : No
Forced : No





1 个附件 售价 大小 下载 时间

The.Circuit.2008.1080p.AMZN.WEBRip.DDP2.0.x264-ABM.torrent 0 金币 81.42K 294 次 29天前

#1楼
发帖时间:2019-11-15 01:00:50   |   回复数:2
911degrees
隐世仙人♂
非常感谢,谢谢分享
29天前 #2楼
kola13
一派掌门
感谢分享
28天前 #3楼
游客组