conanlcg
超级版主

[2016] [欧美] [剧情] [WEB-1080P] 塔卢拉/塔路亚 Tallulah.2016.1080p.NF.WEBRip.DD5.1.x264-PiA 5.41GB

-->

帖子完整标题:塔卢拉/塔路亚 Tallulah.2016.1080p.NF.WEBRip.DD5.1.x264-PiA 5.41GB




◎译  名 塔卢拉 / 塔路亚
◎片  名 Tallulah
◎年  代 2016
◎产  地 美国
◎类  别 剧情 / 喜剧 / 爱情
◎语  言 英语
◎上映日期 2016-01-23(圣丹斯电影节) / 2016-07-29(美国)
◎IMDb评分 6.7/10 from 15613 users
◎IMDb链接 https://www.imdb.com/title/tt1639084
◎豆瓣评分 7.1/10 from 682 users
◎豆瓣链接 https://movie.douban.com/subject/26393989/
◎片  长 111分钟
◎导  演 夏安·海德 Sian Heder
◎编  剧 夏安·海德 Sian Heder
◎主  演 艾伦·佩吉 Ellen Page
      艾莉森·珍妮 Allison Janney
      坦米·布兰查德 Tammy Blanchard
      伊万·乔尼凯特 Evan Jonigkeit
      菲利斯·索利斯 Felix Solis
      大卫·札亚斯 David Zayas
      奥卓·阿杜巴 Uzo Aduba
      弗瑞德里克·林恩 Fredric Lehne
      莉莉安娜·埃利斯 Liliana Ellis
      伊万杰琳·埃利斯 Evangeline Ellis
      约翰·本杰明·西基 John Benjamin Hickey
      扎克瑞·昆图 Zachary Quinto
      麦迪·科尔曼 Maddie Corman
      约翰·德鲁兹巴 John Druzba
      唐马·威尔逊 Tommar Wilson


◎标  签 美国 | 剧情 | 2016 | 成长 | 温情 | 喜剧 | 人性 | 文艺

◎简  介

  该片讲述塔卢拉从一位不负责任的母亲那里偷得婴儿后,当起假妈妈。佩吉饰演的塔卢拉无家可归,吃睡住皆在一辆货车上。而在华盛顿广场公园的戏份中,佩吉开始溺爱地照顾窃来的婴儿。

◎获奖情况

  第32届圣丹斯电影节(2016)
  评审团大奖 剧情片(提名)
Video
ID : 1
Format : AVC
Format/Info : Advanced Video Codec
Format profile : [email protected]
Format settings : CABAC / 4 Ref Frames
Format settings, CABAC : Yes
Format settings, Reference frames : 4 frames
Codec ID : V_MPEG4/ISO/AVC
Duration : 1 h 51 min
Bit rate : 6 431 kb/s
Width : 1 920 pixels
Height : 1 038 pixels
Display aspect ratio : 1.85:1
Frame rate mode : Constant
Frame rate : 23.976 (24000/1001) FPS
Color space : YUV
Chroma subsampling : 4:2:0
Bit depth : 8 bits
Scan type : Progressive
Bits/(Pixel*Frame) : 0.135
Stream size : 5.00 GiB (92%)
Writing library : x264 core 148 r2694 3b70645
Encoding settings : cabac=1 / ref=4 / deblock=1:-3:-3 / analyse=0x3:0x133 / me=umh / subme=10 / psy=1 / psy_rd=1.00:0.15 / mixed_ref=1 / me_range=32 / chroma_me=1 / trellis=2 / 8x8dct=1 / cqm=0 / deadzone=21,11 / fast_pskip=1 / chroma_qp_offset=-3 / threads=12 / lookahead_threads=2 / sliced_threads=0 / nr=0 / decimate=1 / interlaced=0 / bluray_compat=0 / constrained_intra=0 / bframes=8 / b_pyramid=2 / b_adapt=2 / b_bias=0 / direct=3 / weightb=1 / open_gop=0 / weightp=2 / keyint=240 / keyint_min=23 / scenecut=40 / intra_refresh=0 / rc_lookahead=60 / rc=crf / mbtree=1 / crf=17.0 / qcomp=0.60 / qpmin=0 / qpmax=69 / qpstep=4 / ip_ratio=1.40 / aq=3:0.80
Language : English
Default : Yes
Forced : No
Color range : Limited
Matrix coefficients : BT.709

Audio
ID : 2
Format : AC-3
Format/Info : Audio Coding 3
Commercial name : Dolby Digital
Codec ID : A_AC3
Duration : 1 h 51 min
Bit rate mode : Constant
Bit rate : 384 kb/s
Channel(s) : 6 channels
Channel layout : L R C LFE Ls Rs
Sampling rate : 48.0 kHz
Frame rate : 31.250 FPS (1536 SPF)
Bit depth : 16 bits
Compression mode : Lossy
Stream size : 306 MiB (6%)
Language : English
Service kind : Complete Main
Default : Yes
Forced : Yes

Text #1
ID : 3
Format : UTF-8
Codec ID : S_TEXT/UTF8
Codec ID/Info : UTF-8 Plain Text
Language : English
Default : Yes
Forced : No

Text #2
ID : 4
Format : UTF-8
Codec ID : S_TEXT/UTF8
Codec ID/Info : UTF-8 Plain Text
Language : Italian
Default : No
Forced : No

Text #3
ID : 5
Format : UTF-8
Codec ID : S_TEXT/UTF8
Codec ID/Info : UTF-8 Plain Text
Language : German
Default : No
Forced : No

Text #4
ID : 6
Format : UTF-8
Codec ID : S_TEXT/UTF8
Codec ID/Info : UTF-8 Plain Text
Language : Portuguese
Default : No
Forced : No





1 个附件 售价 大小 下载 时间

Tallulah.2016.1080p.NF.WEBRip.DD5.1.x264-PiA.torrent 0 金币 54.89K 336 次 21天前

#1楼
发帖时间:2019-11-15 01:05:55   |   回复数:1
911degrees
隐世仙人♂
非常感谢,谢谢分享
21天前 #2楼
游客组