conanlcg
超级版主

[更 早] [其他] [剧情] [WEB-1080P] 我的忧郁青春/少女初体验 Prozac.Nation.2001.1080p.AMZN.WEBRip.DDP5.1.x264-NTb 9.92GB

-->

帖子完整标题:我的忧郁青春/少女初体验 Prozac.Nation.2001.1080p.AMZN.WEBRip.DDP5.1.x264-NTb 9.92GB




◎译  名 我的忧郁青春 / 少女初体验 / 忧郁症女人 / 普罗萨克王国 / 百忧解的国度
◎片  名 Prozac Nation
◎年  代 2001
◎产  地 德国 / 美国
◎类  别 剧情
◎语  言 英语
◎上映日期 2001-09-08
◎IMDb评分 6.3/10 from 16491 users
◎IMDb链接 https://www.imdb.com/title/tt0236640
◎豆瓣评分 7.0/10 from 1209 users
◎豆瓣链接 https://movie.douban.com/subject/1297800/
◎片  长 95 分钟
◎导  演 埃里克·斯柯比约格 Erik Skjoldbj?rg
◎编  剧 Elizabeth Wurtzel / Galt Niederhoffer
◎主  演 克里斯蒂娜·里奇 Christina Ricci
      贾森·比格斯 Jason Biggs
      安·海切 Anne Heche
      米歇尔·威廉姆斯 Michelle Williams
      乔纳森·莱斯·梅耶斯 Jonathan Rhys Meyers
      杰西卡·兰格 Jessica Lange
      杰西·莫斯 Jesse Moss
      尼古拉斯·坎贝尔 Nicholas Campbell
      Zoe Miller
      Sheila Paterson
      Rob Freeman
      Nicole Parker
      Frida Betrani
      Klodyne Rodney
      伊安·崔西 Ian Tracey


◎标  签 青春 | 抑郁症 | 美国 | 心理 | 成长 | 美国电影 | ChristinaRicci | JonathanRhysMeyers

◎简  介

  根据畅销小说真人真事改编,发生在八零年代中期抗忧郁剂流行前,一名出身工人家庭女子(Christina Ricci)在进入哈佛大学就读的头一年患了忧郁症。本片探讨了当代的离婚、毒品、性交、以及控制欲母亲(Jessica Lange)等社会问题。
Video
ID : 1
Format : AVC
Format/Info : Advanced Video Codec
Format profile : [email protected]
Format settings : CABAC / 4 Ref Frames
Format settings, CABAC : Yes
Format settings, Reference frames : 4 frames
Codec ID : V_MPEG4/ISO/AVC
Duration : 1 h 35 min
Bit rate mode : Variable
Bit rate : 14.0 Mb/s
Maximum bit rate : 15.0 Mb/s
Width : 1 920 pixels
Height : 1 080 pixels
Display aspect ratio : 16:9
Frame rate mode : Constant
Frame rate : 23.976 (24000/1001) FPS
Color space : YUV
Chroma subsampling : 4:2:0
Bit depth : 8 bits
Scan type : Progressive
Bits/(Pixel*Frame) : 0.282
Stream size : 9.29 GiB (94%)
Writing library : x264 core 148 r2623 d5b2374
Encoding settings : cabac=1 / ref=4 / deblock=1:-1:-1 / analyse=0x3:0x133 / me=umh / subme=9 / psy=1 / psy_rd=1.00:0.15 / mixed_ref=1 / me_range=24 / chroma_me=1 / trellis=2 / 8x8dct=1 / cqm=0 / deadzone=21,11 / fast_pskip=1 / chroma_qp_offset=-3 / threads=34 / lookahead_threads=5 / sliced_threads=0 / nr=150 / decimate=1 / interlaced=0 / bluray_compat=0 / constrained_intra=0 / bframes=8 / b_pyramid=2 / b_adapt=2 / b_bias=0 / direct=3 / weightb=1 / open_gop=0 / weightp=2 / keyint=120 / keyint_min=61 / scenecut=0 / intra_refresh=0 / rc_lookahead=120 / rc=crf / mbtree=1 / crf=18.0 / qcomp=0.60 / qpmin=0 / qpmax=69 / qpstep=4 / vbv_maxrate=15000 / vbv_bufsize=31250 / crf_max=0.0 / nal_hrd=vbr / filler=0 / ip_ratio=1.40 / aq=3:1.00
Default : Yes
Forced : No
Color range : Limited
Color primaries : BT.709
Transfer characteristics : BT.709
Matrix coefficients : BT.709

Audio
ID : 2
Format : E-AC-3
Format/Info : Enhanced AC-3
Commercial name : Dolby Digital Plus
Codec ID : A_EAC3
Duration : 1 h 35 min
Bit rate mode : Constant
Bit rate : 640 kb/s
Channel(s) : 6 channels
Channel layout : L R C LFE Ls Rs
Sampling rate : 48.0 kHz
Frame rate : 31.250 FPS (1536 SPF)
Compression mode : Lossy
Stream size : 435 MiB (4%)
Language : English
Service kind : Complete Main
Default : Yes
Forced : No

Text
ID : 3
Format : UTF-8
Codec ID : S_TEXT/UTF8
Codec ID/Info : UTF-8 Plain Text
Language : English
Default : No
Forced : No





1 个附件 售价 大小 下载 时间

Prozac.Nation.2001.1080p.AMZN.WEBRip.DDP5.1.x264-NTb.torrent 0 金币 99.77K 1169 次 29天前

#1楼
发帖时间:2019-11-15 01:09:46   |   回复数:1
911degrees
隐世仙人♂
非常感谢,谢谢分享
29天前 #2楼
游客组