conanlcg
超级版主

[2018] [欧美] [爱情] [WEB-720P] 鞋奴的圣诞节/鞋瘾者的圣诞节 A.Shoe.Addicts.Christmas.2018.720p.AMZN.WEBRip.DDP5.1.x264-DbS 3.

-->

帖子完整标题:鞋奴的圣诞节/鞋瘾者的圣诞节 A.Shoe.Addicts.Christmas.2018.720p.AMZN.WEBRip.DDP5.1.x264-DbS 3.15GB




◎译  名 鞋奴的圣诞节 / 鞋瘾者的圣诞节
◎片  名 A Shoe Addict's Christmas
◎年  代 2018
◎产  地 美国
◎类  别 爱情
◎上映日期 2018-11-25(美国)
◎IMDb评分 6.8/10 from 1177 users
◎IMDb链接 https://www.imdb.com/title/tt8634202
◎豆瓣评分 0/10 from 0 users
◎豆瓣链接 https://movie.douban.com/subject/30414795/
◎片  长 85分钟
◎导  演 Michael Robison
◎编  剧 Rick Garman / Beth Harbison
◎主  演 坎达丝·卡梅隆·玻儿 Candace Cameron Bure
      卢克·马可法莱恩 Luke Macfarlane
      珍·斯马特 Jean Smart
      泰妮卡 戴维斯 Tenika Davis
      Vanessa Matsui


◎简  介

  诺埃尔,一个讨厌假期的人,她在一家百货公司工作,圣诞前夜她意外地被锁在百货公司里。在那里,她遇到了一个女人,她把自己看作诺埃尔的守护天使,并把她介绍给过去、现在和未来的圣诞节的几个“鬼”。
Video
ID : 1
Format : AVC
Format/Info : Advanced Video Codec
Format profile : [email protected]
Format settings : CABAC / 4 Ref Frames
Format settings, CABAC : Yes
Format settings, Reference frames : 4 frames
Codec ID : V_MPEG4/ISO/AVC
Duration : 1 h 26 min
Bit rate mode : Constant
Bit rate : 4 605 kb/s
Nominal bit rate : 6 000 kb/s
Width : 1 280 pixels
Height : 720 pixels
Display aspect ratio : 16:9
Frame rate mode : Constant
Frame rate : 23.976 (24000/1001) FPS
Color space : YUV
Chroma subsampling : 4:2:0
Bit depth : 8 bits
Scan type : Progressive
Bits/(Pixel*Frame) : 0.208
Stream size : 2.77 GiB (88%)
Default : Yes
Forced : No
Color range : Limited
Color primaries : BT.709
Transfer characteristics : BT.709
Matrix coefficients : BT.709

Audio
ID : 2
Format : E-AC-3
Format/Info : Enhanced AC-3
Commercial name : Dolby Digital Plus
Codec ID : A_EAC3
Duration : 1 h 26 min
Bit rate mode : Constant
Bit rate : 640 kb/s
Channel(s) : 6 channels
Channel layout : L R C LFE Ls Rs
Sampling rate : 48.0 kHz
Frame rate : 31.250 FPS (1536 SPF)
Compression mode : Lossy
Stream size : 394 MiB (12%)
Language : English
Service kind : Complete Main
Default : Yes
Forced : No

Text
ID : 3
Format : UTF-8
Codec ID : S_TEXT/UTF8
Codec ID/Info : UTF-8 Plain Text
Duration : 1 h 25 min
Bit rate : 85 b/s
Count of elements : 1957
Stream size : 53.0 KiB (0%)
Title : SDH
Language : English
Default : No
Forced : No





1 个附件 售价 大小 下载 时间

A.Shoe.Addicts.Christmas.2018.720p.AMZN.WEBRip.DDP5.1.x264-DbS.torrent 0 金币 32.07K 238 次 2月前

#1楼
发帖时间:2019-11-18 21:37:51   |   回复数:1
911degrees
隐世仙人♂
非常感谢,谢谢分享
2月前 #2楼
游客组