conanlcg
超级版主

[2019] [其他] [剧情] [WEB-720P] 快递员 The.Courier.2019.720p.AMZN.WEBRip.DDP5.1.x264-NTG 2.63GB

-->

帖子完整标题:快递员 The.Courier.2019.720p.AMZN.WEBRip.DDP5.1.x264-NTG 2.63GB




◎译  名 快递员
◎片  名 The Courier
◎年  代 2019
◎产  地 英国 / 美国
◎类  别 剧情 / 动作 / 惊悚
◎语  言 英语
◎上映日期 2019-12-20(英国)
◎IMDb链接 https://www.imdb.com/title/tt9207616
◎豆瓣评分 0/10 from 0 users
◎豆瓣链接 https://movie.douban.com/subject/30366385/
◎导  演 扎克瑞·阿德勒 Zackary Adler
◎编  剧 扎克瑞·阿德勒 Zackary Adler / 詹姆斯·爱德华·巴克 James Edward Barker / Andy Conway / Nicky Tate
◎主  演 加里·奥德曼 Gary Oldman
      欧嘉·柯瑞兰寇 Olga Kurylenko
      德蒙特·莫罗尼 Dermot Mulroney
      威廉·莫斯里 William Moseley
      阿米特·沙阿 Amit Shah
      李·查尔斯 Lee Charles
      乔尔·迈克利 Joel Michaely
      格雷格·奥维斯 Greg Orvis
      泰·赫尔利 Ty Hurley
      戈登·亚历山大 Gordon Alexander
      雷纳斯·拉特科夫斯基 Renars Latkovskis
      Alicia Agneson
      Craig Conway
      Calli Taylor
      Neil Chapelhow


◎标  签 美国电影 | 犯罪 | 欧嘉·柯瑞兰寇 | 惊悚 | 加里·奥德曼 | 动作 | 2019 | 美国

◎简  介

  本片由扎卡里·阿德勒执导,讲述一名快递员(柯瑞兰寇饰)发现自己运送的最新包裹是一枚炸弹,目标是一名犯罪集团老大谋杀案的目击者(奥德曼饰)后,从腐败的CIA特工和俄罗斯雇佣兵手中拯救目标。该片将于本月在伦敦开拍。Sweet Charm Pictures已购得影片中国发行权。
Video
ID : 1
Format : AVC
Format/Info : Advanced Video Codec
Format profile : [email protected]
Format settings : CABAC / 4 Ref Frames
Format settings, CABAC : Yes
Format settings, Reference frames : 4 frames
Codec ID : V_MPEG4/ISO/AVC
Duration : 1 h 39 min
Bit rate mode : Constant
Bit rate : 3 145 kb/s
Nominal bit rate : 6 000 kb/s
Width : 1 248 pixels
Height : 520 pixels
Display aspect ratio : 2.40:1
Frame rate mode : Constant
Frame rate : 23.976 (24000/1001) FPS
Color space : YUV
Chroma subsampling : 4:2:0
Bit depth : 8 bits
Scan type : Progressive
Bits/(Pixel*Frame) : 0.202
Stream size : 2.19 GiB (83%)
Default : Yes
Forced : No
Color range : Limited
Color primaries : BT.709
Transfer characteristics : BT.709
Matrix coefficients : BT.709

Audio
ID : 2
Format : E-AC-3
Format/Info : Enhanced AC-3
Commercial name : Dolby Digital Plus
Codec ID : A_EAC3
Duration : 1 h 39 min
Bit rate mode : Constant
Bit rate : 640 kb/s
Channel(s) : 6 channels
Channel layout : L R C LFE Ls Rs
Sampling rate : 48.0 kHz
Frame rate : 31.250 FPS (1536 SPF)
Compression mode : Lossy
Stream size : 456 MiB (17%)
Language : English
Service kind : Complete Main
Default : Yes
Forced : No

Text #1
ID : 3
Format : UTF-8
Codec ID : S_TEXT/UTF8
Codec ID/Info : UTF-8 Plain Text
Duration : 1 h 33 min
Bit rate : 26 b/s
Count of elements : 666
Stream size : 18.2 KiB (0%)
Language : English
Default : No
Forced : No

Text #2
ID : 4
Format : UTF-8
Codec ID : S_TEXT/UTF8
Codec ID/Info : UTF-8 Plain Text
Duration : 1 h 33 min
Bit rate : 32 b/s
Count of elements : 893
Stream size : 22.1 KiB (0%)
Title : SDH
Language : English
Default : No
Forced : No





1 个附件 售价 大小 下载 时间

The.Courier.2019.720p.AMZN.WEBRip.DDP5.1.x264-NTG.torrent 0 金币 26.87K 945 次 1月前

#1楼
发帖时间:2019-11-23 14:11:52   |   回复数:1
911degrees
隐世仙人♂
非常感谢,谢谢分享
1月前 #2楼
游客组