conanlcg
超级版主

[2018] [欧美] [剧情] [WEB-720P] 宝瓶座人生 Aquarians.2017.720p.AMZN.WEBRip.DDP2.0.x264-iKA 3.06GB

-->

帖子完整标题:宝瓶座人生 Aquarians.2017.720p.AMZN.WEBRip.DDP2.0.x264-iKA 3.06GB




◎译  名 宝瓶座人生
◎片  名 Aquarians
◎年  代 2018
◎产  地 美国
◎类  别 剧情
◎语  言 英语
◎IMDb评分 6.0/10 from 70 users
◎IMDb链接 http://www.imdb.com/title/tt5291714
◎豆瓣评分 0/10 from 0 users
◎豆瓣链接 https://movie.douban.com/subject/27072826/
◎片  长 102分钟
◎导  演 Michael M. McGuire
◎编  剧 Michael M. McGuire / Scott Tuft
◎主  演 萨莉·凯勒曼 Sally Kellerman
      小马克·布恩 Mark Boone Junior
      玛依亚拉·沃尔什 Maiara Walsh


◎标  签 web | 2017

◎简  介

  Aquarians is a wintertime drama about a seminary student who returns to his hometown and is compelled to reconnect with his estranged brother.
Video
ID : 1
Format : AVC
Format/Info : Advanced Video Codec
Format profile : [email protected]
Format settings : CABAC / 4 Ref Frames
Format settings, CABAC : Yes
Format settings, Reference frames : 4 frames
Codec ID : V_MPEG4/ISO/AVC
Duration : 1 h 43 min
Bit rate mode : Constant
Bit rate : 4 010 kb/s
Nominal bit rate : 6 000 kb/s
Width : 1 280 pixels
Height : 720 pixels
Display aspect ratio : 16:9
Frame rate mode : Constant
Frame rate : 23.976 (24000/1001) FPS
Color space : YUV
Chroma subsampling : 4:2:0
Bit depth : 8 bits
Scan type : Progressive
Bits/(Pixel*Frame) : 0.181
Stream size : 2.90 GiB (95%)
Default : Yes
Forced : No
Color range : Limited
Color primaries : BT.709
Transfer characteristics : BT.709
Matrix coefficients : BT.709

Audio
ID : 2
Format : E-AC-3
Format/Info : Enhanced AC-3
Commercial name : Dolby Digital Plus
Codec ID : A_EAC3
Duration : 1 h 43 min
Bit rate mode : Constant
Bit rate : 224 kb/s
Channel(s) : 2 channels
Channel layout : L R
Sampling rate : 48.0 kHz
Frame rate : 31.250 FPS (1536 SPF)
Compression mode : Lossy
Stream size : 166 MiB (5%)
Language : English
Service kind : Complete Main
Default : Yes
Forced : No

Text
ID : 3
Format : UTF-8
Codec ID : S_TEXT/UTF8
Codec ID/Info : UTF-8 Plain Text
Duration : 1 h 43 min
Bit rate : 49 b/s
Count of elements : 1639
Stream size : 37.2 KiB (0%)
Language : English
Default : No
Forced : No





1 个附件 售价 大小 下载 时间

Aquarians.2017.720p.AMZN.WEBRip.DDP2.0.x264-iKA.torrent 0 金币 31.14K 217 次 8月前

#1楼
发帖时间:2019-11-23 21:10:59   |   回复数:1
911degrees
隐世仙人♂
非常感谢,谢谢分享
8月前 #2楼
游客组