conanlcg
超级版主

[2016] [欧美] [剧情] [WEB-720P] 疯狂之城 Madtown.2016.720p.AMZN.WEBRip.DDP5.1.x264-NTG 2.63GB

-->

帖子完整标题:疯狂之城 Madtown.2016.720p.AMZN.WEBRip.DDP5.1.x264-NTG 2.63GB




◎译  名 疯狂之城
◎片  名 Madtown
◎年  代 2016
◎产  地 美国
◎类  别 剧情 / 惊悚
◎语  言 英语
◎上映日期 2016-03-31(克里夫兰国际电影节) / 2018-01-05(美国)
◎IMDb评分 6.3/10 from 641 users
◎IMDb链接 https://www.imdb.com/title/tt3663564
◎豆瓣评分 0/10 from 0 users
◎豆瓣链接 https://movie.douban.com/subject/26357317/
◎片  长 120分钟
◎导  演 Charles Moore
◎编  剧 查尔斯·摩尔
◎主  演 米洛·文堤米利亚 Milo Ventimiglia
      约翰·比灵斯列 John Billingsley
      马特·洛克伍德 Matt Lockwood
      克里斯托弗·米勒 Christopher Mele
      肖恩·戈兰迪洛 Sean Grandillo
      Rachel Melvin
      Amanda Aday
      Bonita Friedericy
      Joshua Elijah Reese
      Brett Castro
      Kinsley Funari
      Kristina Kopf
      Cameron McKendry


◎标  签 米洛·文堤米利亚 | 美国电影 | 美国 | 犯罪 | 惊悚 | 剧情 | MiloVentimiglia

◎简  介

  剧情聚焦麻烦缠身的年轻男人Briggs,他的姐姐因谋杀父母而被判20年监禁,她被释放之后,Briggs将重新面对过去的恶魔,处理两者之间的关系,并为保护他的未来和重建的新生活而奋斗。
Video
ID : 1
Format : AVC
Format/Info : Advanced Video Codec
Format profile : [email protected]
Format settings : CABAC / 4 Ref Frames
Format settings, CABAC : Yes
Format settings, Reference frames : 4 frames
Codec ID : V_MPEG4/ISO/AVC
Duration : 1 h 52 min
Bit rate mode : Constant
Bit rate : 2 716 kb/s
Nominal bit rate : 6 000 kb/s
Width : 1 280 pixels
Height : 640 pixels
Display aspect ratio : 2.000
Frame rate mode : Constant
Frame rate : 23.976 (24000/1001) FPS
Color space : YUV
Chroma subsampling : 4:2:0
Bit depth : 8 bits
Scan type : Progressive
Bits/(Pixel*Frame) : 0.138
Stream size : 2.13 GiB (81%)
Default : Yes
Forced : No
Color range : Limited
Color primaries : BT.709
Transfer characteristics : BT.709
Matrix coefficients : BT.709

Audio
ID : 2
Format : E-AC-3
Format/Info : Enhanced AC-3
Commercial name : Dolby Digital Plus
Codec ID : A_EAC3
Duration : 1 h 52 min
Bit rate mode : Constant
Bit rate : 640 kb/s
Channel(s) : 6 channels
Channel layout : L R C LFE Ls Rs
Sampling rate : 48.0 kHz
Frame rate : 31.250 FPS (1536 SPF)
Compression mode : Lossy
Stream size : 514 MiB (19%)
Language : English
Service kind : Complete Main
Default : Yes
Forced : No

Text #1
ID : 3
Format : UTF-8
Codec ID : S_TEXT/UTF8
Codec ID/Info : UTF-8 Plain Text
Duration : 1 h 50 min
Bit rate : 82 b/s
Count of elements : 2189
Stream size : 66.9 KiB (0%)
Language : English
Default : No
Forced : No

Text #2
ID : 4
Format : UTF-8
Codec ID : S_TEXT/UTF8
Codec ID/Info : UTF-8 Plain Text
Duration : 1 h 51 min
Bit rate : 86 b/s
Count of elements : 2347
Stream size : 70.8 KiB (0%)
Title : SDH
Language : English
Default : No
Forced : No





1 个附件 售价 大小 下载 时间

Madtown.2016.720p.AMZN.WEBRip.DDP5.1.x264-NTG.torrent 0 金币 26.84K 224 次 1月前

#1楼
发帖时间:2019-11-26 18:02:44   |   回复数:2
huodw
无名小卒
谢谢朋友分享资源。
1月前 #2楼
911degrees
隐世仙人♂
非常感谢,谢谢分享
1月前 #3楼
游客组