conanlcg
超级版主

[2017] [欧美] [其他] [WEB-720P] 入侵栗子岭 Invasion.on.Chestnut.Ridge.2017.720p.AMZN.WEBRip.DDP2.0.x264-BIGSCREEN 1.7

-->

帖子完整标题:入侵栗子岭 Invasion.on.Chestnut.Ridge.2017.720p.AMZN.WEBRip.DDP2.0.x264-BIGSCREEN 1.77GB




◎译  名 入侵栗子岭
◎片  名 Invasion on Chestnut Ridge
◎年  代 2017
◎产  地 美国
◎类  别 纪录片
◎语  言 英语
◎IMDb评分 5.7/10 from 118 users
◎IMDb链接 https://www.imdb.com/title/tt7183826
◎豆瓣评分 0/10 from 0 users
◎豆瓣链接 https://movie.douban.com/subject/29567922/
◎片  长 60分钟
◎导  演 Seth Breedlove
◎编  剧 Seth Breedlove / Mark Matzke
◎主  演 Dwayne Pintoff


◎标  签 求字幕 | DOKU

◎简  介

  暂无相关剧情介绍
Video
ID : 1
Format : AVC
Format/Info : Advanced Video Codec
Format profile : [email protected]
Format settings : CABAC / 4 Ref Frames
Format settings, CABAC : Yes
Format settings, Reference frames : 4 frames
Codec ID : V_MPEG4/ISO/AVC
Duration : 1 h 0 min
Bit rate mode : Constant
Bit rate : 3 970 kb/s
Nominal bit rate : 6 000 kb/s
Width : 1 280 pixels
Height : 720 pixels
Display aspect ratio : 16:9
Frame rate mode : Constant
Frame rate : 23.976 (24000/1001) FPS
Color space : YUV
Chroma subsampling : 4:2:0
Bit depth : 8 bits
Scan type : Progressive
Bits/(Pixel*Frame) : 0.180
Stream size : 1.68 GiB (95%)
Default : Yes
Forced : No
Color range : Limited
Color primaries : BT.709
Transfer characteristics : BT.709
Matrix coefficients : BT.709

Audio
ID : 2
Format : E-AC-3
Format/Info : Enhanced AC-3
Commercial name : Dolby Digital Plus
Codec ID : A_EAC3
Duration : 1 h 0 min
Bit rate mode : Constant
Bit rate : 224 kb/s
Channel(s) : 2 channels
Channel layout : L R
Sampling rate : 48.0 kHz
Frame rate : 31.250 FPS (1536 SPF)
Compression mode : Lossy
Stream size : 97.0 MiB (5%)
Language : English
Service kind : Complete Main
Default : Yes
Forced : No

Text
ID : 3
Format : UTF-8
Codec ID : S_TEXT/UTF8
Codec ID/Info : UTF-8 Plain Text
Duration : 57 min 47 s
Bit rate : 108 b/s
Count of elements : 1136
Stream size : 46.0 KiB (0%)
Title : SDH
Language : English
Default : No
Forced : No





1 个附件 售价 大小 下载 时间

Invasion.on.Chestnut.Ridge.2017.720p.AMZN.WEBRip.DDP2.0.x264-BIGSCREEN.torrent 0 金币 18.31K 231 次 8月前

#1楼
发帖时间:2019-11-29 14:11:02   |   回复数:1
911degrees
隐世仙人♂
非常感谢,谢谢分享
8月前 #2楼
游客组