coor
武林盟主

[2016] [欧美] [剧情] [WEB-720P] 荣誉传承/汤米的荣耀 Tommys.Honour.2016.720p.AMZN.WEBRip.DDP5.1.x264-NTb 5.11GB

-->

帖子完整标题:荣誉传承/汤米的荣耀 Tommys.Honour.2016.720p.AMZN.WEBRip.DDP5.1.x264-NTb 5.11GB




◎译  名 荣誉传承 / 汤米的荣耀
◎片  名 Tommy's Honour
◎年  代 2016
◎产  地 美国
◎类  别 剧情
◎上映日期 2017-04-14(美国)
◎IMDb评分 6.3/10 from 893 users
◎IMDb链接 https://www.imdb.com/title/tt3467914
◎豆瓣评分 6.8/10 from 225 users
◎豆瓣链接 https://movie.douban.com/subject/26611810/
◎片  长 117分钟
◎导  演 杰森·康纳利 Jason Connery
◎编  剧 Pamela Marin / Kevin Cook
◎主  演 山姆·尼尔 Sam Neill
      奥菲利亚·拉维邦德 Ophelia Lovibond
      彼得·穆兰 Peter Mullan
      彼得·费迪南多 Peter Ferdinando
      杰克·劳登 Jack Lowden
      Seylan Baxter


◎标  签 传记 | JackLowden | 英国 | 剧情 | 高尔夫 | 运动 | 2017 | 电影

◎简  介

  In every generation, a torch passes from father to son. And that timeless dynamic is the beating heart of Tommy's Honor - an intimate, powerfully moving tale of the real-life founders of the modern game of golf.
Video
ID : 1
Format : AVC
Format/Info : Advanced Video Codec
Format profile : [email protected]
Format settings : CABAC / 4 Ref Frames
Format settings, CABAC : Yes
Format settings, Reference frames : 4 frames
Codec ID : V_MPEG4/ISO/AVC
Duration : 1 h 52 min
Bit rate mode : Constant
Bit rate : 6 000 kb/s
Width : 1 280 pixels
Height : 720 pixels
Display aspect ratio : 16:9
Frame rate mode : Constant
Frame rate : 23.976 (24000/1001) FPS
Color space : YUV
Chroma subsampling : 4:2:0
Bit depth : 8 bits
Scan type : Progressive
Bits/(Pixel*Frame) : 0.272
Stream size : 4.61 GiB (90%)
Language : English
Default : Yes
Forced : No
Color range : Limited
Color primaries : BT.709
Transfer characteristics : BT.709
Matrix coefficients : BT.709

Audio
ID : 2
Format : E-AC-3
Format/Info : Enhanced AC-3
Commercial name : Dolby Digital Plus
Codec ID : A_EAC3
Duration : 1 h 52 min
Bit rate mode : Constant
Bit rate : 640 kb/s
Channel(s) : 6 channels
Channel layout : L R C LFE Ls Rs
Sampling rate : 48.0 kHz
Frame rate : 31.250 FPS (1536 SPF)
Compression mode : Lossy
Stream size : 514 MiB (10%)
Language : English
Service kind : Complete Main
Default : Yes
Forced : No

Text
ID : 3
Format : UTF-8
Codec ID : S_TEXT/UTF8
Codec ID/Info : UTF-8 Plain Text
Duration : 1 h 48 min
Bit rate : 50 b/s
Count of elements : 1347
Stream size : 40.2 KiB (0%)
Title : SDH
Language : English
Default : No
Forced : No





1 个附件 售价 大小 下载 时间

Tommys.Honour.2016.720p.AMZN.WEBRip.DDP5.1.x264-NTb.torrent 0 金币 26.07K 112 次 1月前

#1楼
发帖时间:2019-12-03 10:06:10   |   回复数:1
911degrees
隐世仙人♂
非常感谢,谢谢分享
1月前 #2楼
游客组