coor
武林高手

[2007] [其他] [剧情] [WEB-1080P] 小小的叛国者/小叛徒 The.Little.Traitor.2007.1080p.AMZN.WEBRip.DD2.0.x264-monkee 8.10GB

-->

帖子完整标题:小小的叛国者/小叛徒 The.Little.Traitor.2007.1080p.AMZN.WEBRip.DD2.0.x264-monkee 8.10GB




◎译  名 小小的叛国者 / 小叛徒
◎片  名 The Little Traitor
◎年  代 2007
◎产  地 以色列 / 美国
◎类  别 剧情
◎语  言 英语 / 希伯来语
◎上映日期 2008-05-08
◎IMDb评分 6.9/10 from 781 users
◎IMDb链接 https://www.imdb.com/title/tt0818170
◎豆瓣评分 8.4/10 from 778 users
◎豆瓣链接 https://movie.douban.com/subject/3072172/
◎片  长 86分钟
◎导  演 Lynn Roth
◎编  剧 Lynn Roth / Amos Oz
◎主  演 Ido Port
      阿尔弗雷德·莫里纳 Alfred Molina
      Arieh Adler
      Jacob Barker
      西奥多·比凯尔 Theodore Bikel
      Vivian Brunstein
      Levana Finkelstein
      Rami Heuberger
      Anat Klausner
      Tarik Kopty
      Guy Krasner
      Yonatan Lahat
      Dafna Melzer
      David Milton-Jones
      Zachi Noy


◎标  签 以色列 | 剧情 | 童年 | 以色列电影 | 成长 | 友情 | 美国 | 儿童

◎简  介

  根据著名作家阿摩司奥兹小说“地下室的黑豹”改编而成的电影,故事发生在1947年的巴勒斯坦,就在几个月之内,以色列自立为一个国家。 Proffy Liebowitz这名11岁的小鬼对于英国占领了它的国土感到非常不满, 并常常和他的两个朋友策划一切恐怖行动来恐吓或炸毁英国军队,直到有一天晚上,他从禁闭放出来后, 又被英国军官Sergeant Dunlop抓住了,但是军官并没有抓他回去,反而自己掏路费送他回家了,但是以后,这两个朋友兼敌人的故事会怎样发展呢?
Video
ID : 1
Format : AVC
Format/Info : Advanced Video Codec
Format profile : [email protected]
Format settings : CABAC / 4 Ref Frames
Format settings, CABAC : Yes
Format settings, Reference frames : 4 frames
Codec ID : V_MPEG4/ISO/AVC
Duration : 1 h 29 min
Bit rate mode : Variable
Bit rate : 12.8 Mb/s
Maximum bit rate : 15.0 Mb/s
Width : 1 920 pixels
Height : 1 080 pixels
Display aspect ratio : 16:9
Frame rate mode : Constant
Frame rate : 23.976 (24000/1001) FPS
Color space : YUV
Chroma subsampling : 4:2:0
Bit depth : 8 bits
Scan type : Progressive
Bits/(Pixel*Frame) : 0.257
Stream size : 7.96 GiB (98%)
Writing library : x264 core 148 r2623 d5b2374
Encoding settings : cabac=1 / ref=4 / deblock=1:-1:-1 / analyse=0x3:0x133 / me=umh / subme=9 / psy=1 / psy_rd=1.00:0.15 / mixed_ref=1 / me_range=24 / chroma_me=1 / trellis=2 / 8x8dct=1 / cqm=0 / deadzone=21,11 / fast_pskip=1 / chroma_qp_offset=-3 / threads=34 / lookahead_threads=5 / sliced_threads=0 / nr=150 / decimate=1 / interlaced=0 / bluray_compat=0 / constrained_intra=0 / bframes=8 / b_pyramid=2 / b_adapt=2 / b_bias=0 / direct=3 / weightb=1 / open_gop=0 / weightp=2 / keyint=120 / keyint_min=61 / scenecut=0 / intra_refresh=0 / rc_lookahead=120 / rc=crf / mbtree=1 / crf=18.0 / qcomp=0.60 / qpmin=0 / qpmax=69 / qpstep=4 / vbv_maxrate=15000 / vbv_bufsize=31250 / crf_max=0.0 / nal_hrd=vbr / filler=0 / ip_ratio=1.40 / aq=3:1.00
Default : Yes
Forced : No
Color range : Limited
Color primaries : BT.709
Transfer characteristics : BT.709
Matrix coefficients : BT.709

Audio
ID : 2
Format : E-AC-3
Format/Info : Enhanced AC-3
Commercial name : Dolby Digital Plus
Codec ID : A_EAC3
Duration : 1 h 29 min
Bit rate mode : Constant
Bit rate : 224 kb/s
Channel(s) : 2 channels
Channel layout : L R
Sampling rate : 48.0 kHz
Frame rate : 31.250 FPS (1536 SPF)
Compression mode : Lossy
Stream size : 143 MiB (2%)
Language : English
Service kind : Complete Main
Default : Yes
Forced : No

Text
ID : 3
Format : UTF-8
Codec ID : S_TEXT/UTF8
Codec ID/Info : UTF-8 Plain Text
Duration : 1 h 27 min
Bit rate : 142 b/s
Count of elements : 2133
Stream size : 91.4 KiB (0%)
Language : English
Default : No
Forced : No





1 个附件 售价 大小 下载 时间

The.Little.Traitor.2007.1080p.AMZN.WEBRip.DD2.0.x264-monkee.torrent 0 金币 41.03K 217 次 8天前

#1楼
发帖时间:2019-12-03 22:57:43   |   回复数:2
911degrees
隐世仙人♂
非常感谢,谢谢分享
7天前 #2楼
jokingcheung
一代宗师
谢谢分享
6天前 #3楼
游客组