coor
武林高手

[2006] [其他] [剧情] [WEB-1080P] 苏格兰飞人/疾速苏格兰 The.Flying.Scotsman.2006.1080p.AMZN.WEBRip.DD5.1.x264-monkee 9.64GB

-->

帖子完整标题:苏格兰飞人/疾速苏格兰 The.Flying.Scotsman.2006.1080p.AMZN.WEBRip.DD5.1.x264-monkee 9.64GB




◎译  名 苏格兰飞人 / 疾速苏格兰 / 疾速追风(台) / 驰速我天地(港)
◎片  名 The Flying Scotsman
◎年  代 2006
◎产  地 德国 / 英国
◎类  别 剧情 / 运动
◎语  言 英语
◎上映日期 2007-06-26(英国)
◎IMDb评分 7.1/10 from 4882 users
◎IMDb链接 https://www.imdb.com/title/tt0472268
◎豆瓣评分 7.6/10 from 791 users
◎豆瓣链接 https://movie.douban.com/subject/2017086/
◎片  长 96 分钟
◎导  演 道格拉斯·麦金农 Douglas Mackinnon
◎编  剧 1075976 / 西蒙·罗斯 Simon Rose / 德克兰·修格斯 Declan Hughes
◎主  演 约翰尼·李·米勒 Jonny Lee Miller
      Sean Brown
      Joseph Carney
      Crawford McInally-Kier
      Jan Plazalski
      Niall Macgregor
      Julie Austin
      Morag Calder
      比利·博伊德 Billy Boyd
      劳拉·弗雷泽 Laura Fraser
      Jean Marie Coffey
      Christopher Anderson
      布莱恩·考克斯 Brian Cox
      罗恩·多纳基 Ron Donachie
      Morven Christie


◎标  签 励志 | 英国 | 体育 | 自行车 | 单车 | 苏格兰 | 英国电影 | 2006

◎简  介

  欧伯利(约翰·李·米勒 Jonny Lee Miller 饰)从小生活在穷困的环境之中,然而,这并未能湮灭他对于单车运动的热爱。在妻子安娜(劳拉·福拉塞尔 Laura Fraser 饰)和好友马尔基(比利·博伊德 Billy Boyd 饰)的支持和鼓励下,欧伯利拥有了他人生中的第一辆改造单车,他亲切的称呼它为“古老的信徒”。
  带着这辆单车,欧伯利来到了挪威的室内赛车场参加比赛,并且立刻打破了那里已经维持了十年之久的记录。,因此而结实了一生的对手和挚友克里斯(Adrian Smith 饰)。可是,没过多久,欧伯利的赛车事业便遭遇了巨大的危机,因为世界单车联盟认为“古老的信徒”实在是太过古怪,因此禁止欧伯利骑它参加比赛。
Video
ID : 1
Format : AVC
Format/Info : Advanced Video Codec
Format profile : [email protected]
Format settings : CABAC / 4 Ref Frames
Format settings, CABAC : Yes
Format settings, Reference frames : 4 frames
Codec ID : V_MPEG4/ISO/AVC
Duration : 1 h 42 min
Bit rate mode : Variable
Bit rate : 12.8 Mb/s
Maximum bit rate : 15.0 Mb/s
Width : 1 920 pixels
Height : 1 040 pixels
Display aspect ratio : 1.85:1
Frame rate mode : Constant
Frame rate : 23.976 (24000/1001) FPS
Color space : YUV
Chroma subsampling : 4:2:0
Bit depth : 8 bits
Scan type : Progressive
Bits/(Pixel*Frame) : 0.268
Stream size : 9.18 GiB (95%)
Writing library : x264 core 148 r2623 d5b2374
Encoding settings : cabac=1 / ref=4 / deblock=1:-1:-1 / analyse=0x3:0x133 / me=umh / subme=9 / psy=1 / psy_rd=1.00:0.15 / mixed_ref=1 / me_range=24 / chroma_me=1 / trellis=2 / 8x8dct=1 / cqm=0 / deadzone=21,11 / fast_pskip=1 / chroma_qp_offset=-3 / threads=32 / lookahead_threads=5 / sliced_threads=0 / nr=150 / decimate=1 / interlaced=0 / bluray_compat=0 / constrained_intra=0 / bframes=8 / b_pyramid=2 / b_adapt=2 / b_bias=0 / direct=3 / weightb=1 / open_gop=0 / weightp=2 / keyint=120 / keyint_min=61 / scenecut=0 / intra_refresh=0 / rc_lookahead=120 / rc=crf / mbtree=1 / crf=18.0 / qcomp=0.60 / qpmin=0 / qpmax=69 / qpstep=4 / vbv_maxrate=15000 / vbv_bufsize=31250 / crf_max=0.0 / nal_hrd=vbr / filler=0 / ip_ratio=1.40 / aq=3:1.00
Default : Yes
Forced : No
Color range : Limited
Color primaries : BT.709
Transfer characteristics : BT.709
Matrix coefficients : BT.709

Audio
ID : 2
Format : E-AC-3
Format/Info : Enhanced AC-3
Commercial name : Dolby Digital Plus
Codec ID : A_EAC3
Duration : 1 h 42 min
Bit rate mode : Constant
Bit rate : 640 kb/s
Channel(s) : 6 channels
Channel layout : L R C LFE Ls Rs
Sampling rate : 48.0 kHz
Frame rate : 31.250 FPS (1536 SPF)
Compression mode : Lossy
Stream size : 470 MiB (5%)
Language : English
Service kind : Complete Main
Default : Yes
Forced : No

Text
ID : 3
Format : UTF-8
Codec ID : S_TEXT/UTF8
Codec ID/Info : UTF-8 Plain Text
Duration : 1 h 34 min
Bit rate : 52 b/s
Count of elements : 1078
Stream size : 36.0 KiB (0%)
Language : English
Default : No
Forced : No





1 个附件 售价 大小 下载 时间

The.Flying.Scotsman.2006.1080p.AMZN.WEBRip.DD5.1.x264-monkee.torrent 0 金币 48.76K 189 次 8天前

#1楼
发帖时间:2019-12-03 23:00:32   |   回复数:2
911degrees
隐世仙人♂
非常感谢,谢谢分享
7天前 #2楼
jokingcheung
一代宗师
谢谢分享
6天前 #3楼
游客组