coor
武林高手

[2016] [其他] [剧情] [WEB-1080P] 娜娜 Rara.2016.SPANISH.ENSUBBED.1080p.AMZN.WEBRip.DD5.1.x264-QOQ 5.32GB

-->

帖子完整标题:娜娜 Rara.2016.SPANISH.ENSUBBED.1080p.AMZN.WEBRip.DD5.1.x264-QOQ 5.32GB




◎译  名 娜娜
◎片  名 Rara
◎年  代 2016
◎产  地 智利 / 阿根廷
◎类  别 剧情 / 同性
◎语  言 西班牙语
◎上映日期 2016-02-15(柏林电影节)
◎IMDb评分 6.6/10 from 576 users
◎IMDb链接 https://www.imdb.com/title/tt5070130
◎豆瓣评分 6.4/10 from 131 users
◎豆瓣链接 https://movie.douban.com/subject/26721782/
◎片  长 93分钟
◎导  演 Pepa San Martín
◎编  剧 Pepa San Martín / 艾丽西亚·施谢森 Alicia Scherson
◎主  演 Julia Lübbert
      Emilia Ossandon
      Mariana Loyola
      Agustina Mu?oz
      Daniel Mu?oz
      Sigrid Alegría
      寇卡·瓜兹尼 Coca Guazzini
      Enrique Bustamante
      Luz Croxatto
      克劳迪亚·塞莱东 Claudia Celedón
      Micaela Cristi
      Nicolás Vigneaux
      Soledad Yá?ez
      Luna del Canto
      Rosario Espinoza


◎标  签 阿根廷 | 智利 | 2016 | 同性 | LGBT | 家庭 | 成长 | 青春

◎简  介

  入围第66届柏林电影节酷儿单元,获第64届圣塞巴斯蒂安国际电影节(2016)地平线大奖 。小女孩rara生活在一个LGBT家庭,她同时拥有两个母亲,只有13岁的她一直感觉很幸福,直到亲生父亲的试图得到她的抚养权,事情开始发生了变化。

◎获奖情况

  第64届圣塞巴斯蒂安国际电影节(2016)
  地平线大奖 Pepa San Martín
Video
ID : 1
Format : AVC
Format/Info : Advanced Video Codec
Format profile : [email protected]
Format settings : CABAC / 4 Ref Frames
Format settings, CABAC : Yes
Format settings, Reference frames : 4 frames
Codec ID : V_MPEG4/ISO/AVC
Duration : 1 h 29 min
Bit rate mode : Variable
Bit rate : 7 878 kb/s
Maximum bit rate : 15.0 Mb/s
Width : 1 920 pixels
Height : 816 pixels
Display aspect ratio : 2.35:1
Frame rate mode : Constant
Frame rate : 23.976 (24000/1001) FPS
Color space : YUV
Chroma subsampling : 4:2:0
Bit depth : 8 bits
Scan type : Progressive
Bits/(Pixel*Frame) : 0.210
Stream size : 4.92 GiB (92%)
Default : Yes
Forced : No
Color range : Limited
Color primaries : BT.709
Transfer characteristics : BT.709
Matrix coefficients : BT.709

Audio
ID : 2
Format : E-AC-3
Format/Info : Enhanced AC-3
Commercial name : Dolby Digital Plus
Codec ID : A_EAC3
Duration : 1 h 29 min
Bit rate mode : Constant
Bit rate : 640 kb/s
Channel(s) : 6 channels
Channel layout : L R C LFE Ls Rs
Sampling rate : 48.0 kHz
Frame rate : 31.250 FPS (1536 SPF)
Compression mode : Lossy
Stream size : 409 MiB (8%)
Language : Spanish
Service kind : Complete Main
Default : Yes
Forced : No





1 个附件 售价 大小 下载 时间

Rara.2016.SPANISH.ENSUBBED.1080p.AMZN.WEBRip.DD5.1.x264-QOQ.torrent 0 金币 27.14K 168 次 8天前

#1楼
发帖时间:2019-12-03 23:05:53   |   回复数:2
911degrees
隐世仙人♂
非常感谢,谢谢分享
7天前 #2楼
tanchoohoon
武林盟主
感谢楼主的无私分享
7天前 #3楼
游客组