coor
一代宗师

[2018] [其他] [恐怖] [WEB-720P] 血袋 Blood.Bags.2018.720p.AMZN.WEBRip.DDP5.1.x264-NTG 2.78GB

-->

帖子完整标题:血袋 Blood.Bags.2018.720p.AMZN.WEBRip.DDP5.1.x264-NTG 2.78GB




◎译  名 血袋
◎片  名 Blood Bags
◎年  代 2018
◎产  地 意大利
◎类  别 恐怖
◎语  言 英语 / 意大利语 / 俄语 Russian
◎上映日期 2018-11-13(意大利)
◎IMDb评分 5.6/10 from 32 users
◎IMDb链接 https://www.imdb.com/title/tt7362370
◎豆瓣评分 0/10 from 0 users
◎豆瓣链接 https://movie.douban.com/subject/30368047/
◎片  长 83分钟
◎导  演 Emiliano Ranzani
◎编  剧 Emiliano Ranzani / Davide Mela / Alessandro Regaldo / Scarlett Amaris
◎主  演 Makenna Guyler
      Emanuele Turetta
      Marta Tananyan


◎标  签 恐怖

◎简  介

  A monster stalks the corridors of an abandoned mansion, targeting those curious enough to find themselves inside. Two friends break in and discover that all exits have been sealed off. The creature that hunts them is growing hungry for their blood and there is no escape…
Video
ID : 1
Format : AVC
Format/Info : Advanced Video Codec
Format profile : [email protected]
Format settings : CABAC / 4 Ref Frames
Format settings, CABAC : Yes
Format settings, Reference frames : 4 frames
Codec ID : V_MPEG4/ISO/AVC
Duration : 1 h 23 min
Bit rate mode : Constant
Bit rate : 4 118 kb/s
Nominal bit rate : 6 000 kb/s
Width : 1 280 pixels
Height : 720 pixels
Display aspect ratio : 16:9
Frame rate mode : Constant
Frame rate : 24.000 FPS
Color space : YUV
Chroma subsampling : 4:2:0
Bit depth : 8 bits
Scan type : Progressive
Bits/(Pixel*Frame) : 0.186
Stream size : 2.40 GiB (87%)
Default : Yes
Forced : No
Color range : Limited
Color primaries : BT.709
Transfer characteristics : BT.709
Matrix coefficients : BT.709

Audio
ID : 2
Format : E-AC-3
Format/Info : Enhanced AC-3
Commercial name : Dolby Digital Plus
Codec ID : A_EAC3
Duration : 1 h 23 min
Bit rate mode : Constant
Bit rate : 640 kb/s
Channel(s) : 6 channels
Channel layout : L R C LFE Ls Rs
Sampling rate : 48.0 kHz
Frame rate : 31.250 FPS (1536 SPF)
Compression mode : Lossy
Stream size : 382 MiB (13%)
Language : English
Service kind : Complete Main
Default : Yes
Forced : No

Text #1
ID : 3
Format : UTF-8
Codec ID : S_TEXT/UTF8
Codec ID/Info : UTF-8 Plain Text
Duration : 1 h 22 min
Bit rate : 18 b/s
Count of elements : 509
Stream size : 11.4 KiB (0%)
Language : English
Default : No
Forced : No

Text #2
ID : 4
Format : UTF-8
Codec ID : S_TEXT/UTF8
Codec ID/Info : UTF-8 Plain Text
Duration : 1 h 22 min
Bit rate : 19 b/s
Count of elements : 509
Stream size : 11.5 KiB (0%)
Title : SDH
Language : English
Default : No
Forced : No





1 个附件 售价 大小 下载 时间

Blood.Bags.2018.720p.AMZN.WEBRip.DDP5.1.x264-NTG.torrent 0 金币 28.29K 245 次 8月前

#1楼
发帖时间:2019-12-04 06:52:26   |   回复数:1
911degrees
隐世仙人♂
非常感谢,谢谢分享
8月前 #2楼
游客组