coor
一代宗师

[2019] [欧美] [其他] [WEB-720P] 昆汀·塔伦蒂诺的21年 21.Years.Quentin.Tarantino.2019.720p.AMZN.WEBRip.DDP2.0.x264-NTG 3.2

-->

帖子完整标题:昆汀·塔伦蒂诺的21年 21.Years.Quentin.Tarantino.2019.720p.AMZN.WEBRip.DDP2.0.x264-NTG 3.22GB




◎译  名 昆汀·塔伦蒂诺的21年 / 21 Years: Quentin Tarantino / 21年:昆汀·塔伦蒂诺 / 昆汀超集8(台) / 昆頓塔倫天奴:鬼才的血與夢(港)
◎片  名 QT8: The First Eight
◎年  代 2019
◎产  地 美国
◎类  别 纪录片
◎语  言 英语
◎上映日期 2019-10-21(美国)
◎IMDb评分 7.3/10 from 118 users
◎IMDb链接 https://www.imdb.com/title/tt4329810
◎豆瓣评分 7.6/10 from 65 users
◎豆瓣链接 https://movie.douban.com/subject/26661664/
◎片  长 120分钟
◎导  演 塔拉·伍德 Tara Wood
◎编  剧 塔拉·伍德 Tara Wood
◎主  演 塞缪尔·杰克逊 Samuel L. Jackson
      克里斯托弗·沃尔兹 Christoph Waltz
      詹妮弗·杰森·李 Jennifer Jason Leigh
      刘玉玲 Lucy Liu
      库尔特·拉塞尔 Kurt Russell
      黛安·克鲁格 Diane Kruger
      杰米·福克斯 Jamie Foxx
      蒂姆·罗斯 Tim Roth
      伊莱·罗斯 Eli Roth
      迈克尔·马德森 Michael Madsen
      布鲁斯·邓恩 Bruce Dern
      佐伊·贝尔 Zoe Bell
      罗伯特·福斯特 Robert Forster


◎标  签 昆汀·塔伦蒂诺 | 纪录片 | 昆汀 | 美国 | 紀錄片 | 2016 | 传记 | 塔拉·伍德

◎简  介

  纪录片《21年:昆汀·塔伦蒂诺》正式开拍,影片由《21年:理查德·林克莱特》的导演塔拉·伍德执导,聚焦痞子21年的光影人生,片中将包含大量“御用”采访,萨缪尔·L·杰克逊、约翰·特拉沃尔塔、克里斯托弗·沃兹、佐伊·贝尔等。导演伍德称选择昆汀是因为“他是最具革命性、最有特色的导演”。
Video
ID : 1
Format : AVC
Format/Info : Advanced Video Codec
Format profile : [email protected]
Format settings : CABAC / 4 Ref Frames
Format settings, CABAC : Yes
Format settings, Reference frames : 4 frames
Codec ID : V_MPEG4/ISO/AVC
Duration : 1 h 40 min
Bit rate mode : Constant
Bit rate : 4 348 kb/s
Nominal bit rate : 6 000 kb/s
Width : 1 280 pixels
Height : 720 pixels
Display aspect ratio : 16:9
Frame rate mode : Constant
Frame rate : 23.976 (24000/1001) FPS
Color space : YUV
Chroma subsampling : 4:2:0
Bit depth : 8 bits
Scan type : Progressive
Bits/(Pixel*Frame) : 0.197
Stream size : 3.06 GiB (95%)
Default : Yes
Forced : No
Color range : Limited
Color primaries : BT.709
Transfer characteristics : BT.709
Matrix coefficients : BT.709

Audio
ID : 2
Format : E-AC-3
Format/Info : Enhanced AC-3
Commercial name : Dolby Digital Plus
Codec ID : A_EAC3
Duration : 1 h 40 min
Bit rate mode : Constant
Bit rate : 224 kb/s
Channel(s) : 2 channels
Channel layout : L R
Sampling rate : 48.0 kHz
Frame rate : 31.250 FPS (1536 SPF)
Compression mode : Lossy
Stream size : 161 MiB (5%)
Language : English
Service kind : Complete Main
Default : Yes
Forced : No

Text #1
ID : 3
Format : UTF-8
Codec ID : S_TEXT/UTF8
Codec ID/Info : UTF-8 Plain Text
Duration : 1 h 37 min
Bit rate : 109 b/s
Count of elements : 2330
Stream size : 77.8 KiB (0%)
Language : English
Default : No
Forced : No

Text #2
ID : 4
Format : UTF-8
Codec ID : S_TEXT/UTF8
Codec ID/Info : UTF-8 Plain Text
Duration : 1 h 37 min
Bit rate : 110 b/s
Count of elements : 2346
Stream size : 78.6 KiB (0%)
Title : SDH
Language : English
Default : No
Forced : No





1 个附件 售价 大小 下载 时间

21.Years.Quentin.Tarantino.2019.720p.AMZN.WEBRip.DDP2.0.x264-NTG.torrent 0 金币 32.72K 630 次 8月前

#1楼
发帖时间:2019-12-04 06:56:16   |   回复数:2
911degrees
隐世仙人♂
非常感谢,谢谢分享
8月前 #2楼
jokingcheung
一代宗师
谢谢分享
8月前 #3楼
游客组