coor
一代宗师

[2018] [其他] [其他] [WEB-720P] 会见戈尔巴乔夫/荷索會戈巴卓夫(港) Meeting.Gorbachev.2018.720p.AMZN.WEBRip.DDP5.1.x264-NTG 3.21G

-->

帖子完整标题:会见戈尔巴乔夫/荷索會戈巴卓夫(港) Meeting.Gorbachev.2018.720p.AMZN.WEBRip.DDP5.1.x264-NTG 3.21GB




◎译  名 会见戈尔巴乔夫 / 荷索會戈巴卓夫(港)
◎片  名 Meeting Gorbachev
◎年  代 2018
◎产  地 英国 / 美国 / 德国
◎类  别 纪录片
◎语  言 英语 / 俄语 / 德语 / 波兰语
◎上映日期 2018-09(多伦多)
◎IMDb评分 7.2/10 from 662 users
◎IMDb链接 https://www.imdb.com/title/tt8811382
◎豆瓣评分 7.7/10 from 100 users
◎豆瓣链接 https://movie.douban.com/subject/30296892/
◎片  长 90分钟
◎导  演 沃纳·赫尔佐格 Werner Herzog / Andre Singer
◎主  演 米哈伊尔·戈尔巴乔夫 Mikhail Gorbachev
      沃纳·赫尔佐格 Werner Herzog
      罗纳德·里根 Ronald Reagan
      玛格丽特·撒切尔 Margaret Thatcher
      莱赫·瓦文萨 Lech Walesa


◎标  签 纪录片 | 戈尔巴乔夫 | 德国 | 苏联 | WernerHerzog | 赫尔佐格 | 2018 | 沃纳·赫尔佐格

◎简  介

  特立獨行的電影巨擘遇上曾叱吒風雲的時代巨人,識英雄重英雄,三次會面坦誠交鋒,走過歷史沉重,毋忘笑看人間。荷索(42 屆)以詩人目光看戈巴卓夫如何崛起成為前蘇聯領導人,揮舞改革開放紅旗,藉切爾諾貝爾核災炸破美蘇冷戰頑石,致令鐵幕瓦解、世界變天,讓和平得以絕處逢生。談被迫下台壯志未竟的滄桑落寞,未若憶念亡妻相知相愛的黯然神傷。如今步入暮年,俱往矣?瞻顧今朝新冷戰崢嶸再露,「問蒼茫大地,誰主沉浮?」
Video
ID : 1
Format : AVC
Format/Info : Advanced Video Codec
Format profile : [email protected]
Format settings : CABAC / 4 Ref Frames
Format settings, CABAC : Yes
Format settings, Reference frames : 4 frames
Codec ID : V_MPEG4/ISO/AVC
Duration : 1 h 31 min
Bit rate mode : Constant
Bit rate : 4 389 kb/s
Nominal bit rate : 6 000 kb/s
Width : 1 280 pixels
Height : 720 pixels
Display aspect ratio : 16:9
Frame rate mode : Constant
Frame rate : 25.000 FPS
Color space : YUV
Chroma subsampling : 4:2:0
Bit depth : 8 bits
Scan type : Progressive
Bits/(Pixel*Frame) : 0.190
Stream size : 2.80 GiB (87%)
Default : Yes
Forced : No
Color range : Limited
Color primaries : BT.709
Transfer characteristics : BT.709
Matrix coefficients : BT.709

Audio
ID : 2
Format : E-AC-3
Format/Info : Enhanced AC-3
Commercial name : Dolby Digital Plus
Codec ID : A_EAC3
Duration : 1 h 31 min
Bit rate mode : Constant
Bit rate : 640 kb/s
Channel(s) : 6 channels
Channel layout : L R C LFE Ls Rs
Sampling rate : 48.0 kHz
Frame rate : 31.250 FPS (1536 SPF)
Compression mode : Lossy
Stream size : 418 MiB (13%)
Language : English
Service kind : Complete Main
Default : Yes
Forced : No

Text #1
ID : 3
Format : UTF-8
Codec ID : S_TEXT/UTF8
Codec ID/Info : UTF-8 Plain Text
Duration : 1 h 27 min
Bit rate : 40 b/s
Count of elements : 658
Stream size : 26.1 KiB (0%)
Language : English
Default : No
Forced : No

Text #2
ID : 4
Format : UTF-8
Codec ID : S_TEXT/UTF8
Codec ID/Info : UTF-8 Plain Text
Duration : 1 h 28 min
Bit rate : 44 b/s
Count of elements : 792
Stream size : 28.8 KiB (0%)
Title : SDH
Language : English
Default : No
Forced : No





1 个附件 售价 大小 下载 时间

Meeting.Gorbachev.2018.720p.AMZN.WEBRip.DDP5.1.x264-NTG.torrent 0 金币 32.64K 868 次 8月前

#1楼
发帖时间:2019-12-05 21:00:34   |   回复数:3
jokingcheung
一代宗师
谢谢分享
8月前 #2楼
pokuan909
武林高手
感谢分享
8月前 #3楼
911degrees
隐世仙人♂
非常感谢,谢谢分享
8月前 #4楼
游客组