coor
一代宗师

[2018] [欧美] [剧情] [WEB-720P] 曼德拉效应 The.Mandela.Effect.2019.720p.AMZN.WEBRip.DDP5.1.x264-NTG 2.86GB

-->

帖子完整标题:曼德拉效应 The.Mandela.Effect.2019.720p.AMZN.WEBRip.DDP5.1.x264-NTG 2.86GB




◎译  名 曼德拉效应
◎片  名 The Mandela Effect
◎年  代 2018
◎产  地 美国
◎类  别 剧情 / 科幻 / 惊悚
◎语  言 英语
◎上映日期 2019-12-06(美国)
◎IMDb链接 https://www.imdb.com/title/tt6544220
◎豆瓣评分 0/10 from 0 users
◎豆瓣链接 https://movie.douban.com/subject/30282128/
◎导  演 大卫·盖伊·利维 David Guy Levy
◎编  剧 大卫·盖伊·利维 David Guy Levy / 史蒂芬·斯拉克顿豪芬 Steffen Schlachtenhaufen
◎主  演 查理·霍夫赫梅尔 Charlie Hofheimer
      阿莱卡萨·帕拉迪诺 Aleksa Palladino
      罗宾·泰勒 Robin Lord Taylor


◎标  签 科幻 | 悬疑 | 惊悚 | 美国 | 罗宾泰勒 | 剧情

◎简  介

  A man becomes obsessed with facts and events that have been collectively misremembered by thousands of people. Believing the phenomena to be the symptom of something larger, his obsession eventually leads him to question reality itself.
Video
ID : 1
Format : AVC
Format/Info : Advanced Video Codec
Format profile : [email protected]
Format settings : CABAC / 4 Ref Frames
Format settings, CABAC : Yes
Format settings, Reference frames : 4 frames
Codec ID : V_MPEG4/ISO/AVC
Duration : 1 h 19 min
Bit rate mode : Constant
Bit rate : 4 482 kb/s
Nominal bit rate : 6 000 kb/s
Width : 1 248 pixels
Height : 520 pixels
Display aspect ratio : 2.40:1
Frame rate mode : Constant
Frame rate : 23.976 (24000/1001) FPS
Color space : YUV
Chroma subsampling : 4:2:0
Bit depth : 8 bits
Scan type : Progressive
Bits/(Pixel*Frame) : 0.288
Stream size : 2.50 GiB (87%)
Default : Yes
Forced : No
Color range : Limited
Color primaries : BT.709
Transfer characteristics : BT.709
Matrix coefficients : BT.709

Audio
ID : 2
Format : E-AC-3
Format/Info : Enhanced AC-3
Commercial name : Dolby Digital Plus
Codec ID : A_EAC3
Duration : 1 h 19 min
Bit rate mode : Constant
Bit rate : 640 kb/s
Channel(s) : 6 channels
Channel layout : L R C LFE Ls Rs
Sampling rate : 48.0 kHz
Frame rate : 31.250 FPS (1536 SPF)
Compression mode : Lossy
Stream size : 366 MiB (12%)
Language : English
Service kind : Complete Main
Default : Yes
Forced : No

Text #1
ID : 3
Format : UTF-8
Codec ID : S_TEXT/UTF8
Codec ID/Info : UTF-8 Plain Text
Duration : 1 h 13 min
Bit rate : 53 b/s
Count of elements : 934
Stream size : 28.6 KiB (0%)
Language : English
Default : No
Forced : No

Text #2
ID : 4
Format : UTF-8
Codec ID : S_TEXT/UTF8
Codec ID/Info : UTF-8 Plain Text
Duration : 1 h 19 min
Bit rate : 55 b/s
Count of elements : 1083
Stream size : 32.3 KiB (0%)
Title : SDH
Language : English
Default : No
Forced : No





1 个附件 售价 大小 下载 时间

The.Mandela.Effect.2019.720p.AMZN.WEBRip.DDP5.1.x264-NTG.torrent 0 金币 29.15K 203 次 8月前

#1楼
发帖时间:2019-12-06 20:04:51   |   回复数:1
911degrees
隐世仙人♂
非常感谢,谢谢分享
8月前 #2楼
游客组