coor
一代宗师

[2019] [欧美] [惊悚] [WEB-720P] 找到了 I.See.You.2019.720p.AMZN.WEBRip.DDP5.1.x264-NTG

-->

帖子完整标题:找到了 I.See.You.2019.720p.AMZN.WEBRip.DDP5.1.x264-NTG




◎译  名 找到了
◎片  名 I See You
◎年  代 2019
◎产  地 美国
◎类  别 惊悚
◎语  言 英语
◎上映日期 2019-12-06(美国)
◎IMDb评分 6.2/10 from 269 users
◎IMDb链接 https://www.imdb.com/title/tt6079516
◎豆瓣评分 0/10 from 0 users
◎豆瓣链接 https://movie.douban.com/subject/27066196/
◎片  长 96分钟
◎导  演 亚当·兰道 Adam Randall
◎编  剧 德文·格拉耶 Devon Graye
◎主  演 海伦·亨特 Helen Hunt
      乔恩·坦尼 Jon Tenney
      犹大·刘易斯 Judah Lewis
      欧文·泰格 Owen Teague
      莉碧·巴勒尔 Libe Barer
      妮可·福斯特 Nicole Forester
      埃里卡·亚历山大 Erika Alexander
      阿利森·金 Allison King
      山姆·特拉梅尔 Sam Trammell
      Brooks Roseberry
      Adam Kern


◎标  签 惊悚 | 恐怖 | 美国 | 恐怖/惊悚 | 2019 | 美国电影 | 电影 | 山姆·特拉梅尔

◎简  介

  海伦·亨特加盟亚当·兰道([奇机少年])执导恐怖片[找到了](I See You,暂译)。一位儿童诱拐调查员忍受着妻子出轨的痛苦,妻子也因内疚逐渐变得情绪失常。邪恶之力渐渐入侵他们的家庭,两人的儿子也因此陷入了致命危险当中。本作将于今夏在克利夫兰开机。
Video
ID : 1
Format : AVC
Format/Info : Advanced Video Codec
Format profile : [email protected]
Format settings : CABAC / 4 Ref Frames
Format settings, CABAC : Yes
Format settings, Reference frames : 4 frames
Codec ID : V_MPEG4/ISO/AVC
Duration : 1 h 38 min
Bit rate mode : Constant
Bit rate : 2 618 kb/s
Nominal bit rate : 6 000 kb/s
Width : 1 280 pixels
Height : 576 pixels
Display aspect ratio : 2.2:1
Original display aspect ratio : 2.2:1
Frame rate mode : Constant
Frame rate : 23.976 (24000/1001) FPS
Color space : YUV
Chroma subsampling : 4:2:0
Bit depth : 8 bits
Scan type : Progressive
Bits/(Pixel*Frame) : 0.148
Stream size : 1.80 GiB (80%)
Default : Yes
Forced : No
Color range : Limited
Color primaries : BT.709
Transfer characteristics : BT.709
Matrix coefficients : BT.709

Audio
ID : 2
Format : E-AC-3
Format/Info : Enhanced AC-3
Commercial name : Dolby Digital Plus
Codec ID : A_EAC3
Duration : 1 h 38 min
Bit rate mode : Constant
Bit rate : 640 kb/s
Channel(s) : 6 channels
Channel layout : L R C LFE Ls Rs
Sampling rate : 48.0 kHz
Frame rate : 31.250 FPS (1536 SPF)
Compression mode : Lossy
Stream size : 450 MiB (20%)
Language : English
Service kind : Complete Main
Default : Yes
Forced : No

Text #1
ID : 3
Format : UTF-8
Codec ID : S_TEXT/UTF8
Codec ID/Info : UTF-8 Plain Text
Duration : 1 h 25 min
Bit rate : 33 b/s
Count of elements : 780
Stream size : 20.8 KiB (0%)
Language : English
Default : No
Forced : No

Text #2
ID : 4
Format : UTF-8
Codec ID : S_TEXT/UTF8
Codec ID/Info : UTF-8 Plain Text
Duration : 1 h 30 min
Bit rate : 37 b/s
Count of elements : 935
Stream size : 25.0 KiB (0%)
Title : SDH
Language : English
Default : No
Forced : No





1 个附件 售价 大小 下载 时间

I.See.You.2019.720p.AMZN.WEBRip.DDP5.1.x264-NTG.torrent 0 金币 22.90K 294 次 8月前

#1楼
发帖时间:2019-12-06 20:20:19   |   回复数:1
911degrees
隐世仙人♂
非常感谢,谢谢分享
8月前 #2楼
游客组