coor
一代宗师

[2018] [欧美] [剧情] [WEB-720P] 百万碎片 A.Million.Little.Pieces.2018.720p.AMZN.WEBRip.DDP5.1.x264-NTG 2.26GB

-->

帖子完整标题:百万碎片 A.Million.Little.Pieces.2018.720p.AMZN.WEBRip.DDP5.1.x264-NTG 2.26GB




◎译  名 百万碎片
◎片  名 A Million Little Pieces
◎年  代 2018
◎产  地 美国
◎类  别 剧情
◎语  言 英语
◎上映日期 2018-09-10(多伦多电影节) / 2019-08-30(英国) / 2019-12-06(美国)
◎IMDb评分 6.5/10 from 318 users
◎IMDb链接 https://www.imdb.com/title/tt0427543
◎豆瓣评分 0/10 from 0 users
◎豆瓣链接 https://movie.douban.com/subject/27180428/
◎导  演 萨姆·泰勒·约翰逊 Sam Taylor-Johnson
◎编  剧 亚伦·泰勒-约翰逊 Aaron Taylor-Johnson / 萨姆·泰勒·约翰逊 Sam Taylor-Johnson / 詹姆斯·弗雷 James Frey
◎主  演 亚伦·泰勒-约翰逊 Aaron Taylor-Johnson
      查理·汉纳姆 Charlie Hunnam
      比利·鲍伯·松顿 Billy Bob Thornton
      朱丽叶特·刘易斯 Juliette Lewis
      吉奥瓦尼·瑞比西 Giovanni Ribisi
      大卫·达斯马齐连 David Dastmalchian
      达什·米霍克 Dash Mihok
      汤姆·阿曼德茨 Tom Amandes
      安迪·麦肯济 Andy Mackenzie
      奥黛莎·杨 Odessa Young
      Sean LoGrasso
      Brad Berryhill
      Deep Rai
      Frederick Lawrence
      Keith Barber


◎标  签 萨姆·泰勒·约翰逊 | 2019 | 查理·汉纳姆 | CharlieHunnam | 美国电影 | 比利·鲍勃·松顿 | 美国 | 电影

◎简  介

  夫妻档亚伦·泰勒-约翰逊与萨姆·泰勒-约翰逊又要合作了,他们将把“臭名昭著”的畅销书、讲述吸毒“瘾君子”的《百万碎片》(A Million Little Pieces)拍成电影,计划丈夫出演、妻子导演。两人曾这样合作电影《无处的男孩》(并因此相恋)。《百万碎片》项目也很狗血:原作是James Frey写的书,卖得非常好,03年推出后就是各大电影公司争夺的目标,并在当年由华纳取得改编权,布拉德·皮特和詹妮弗·安妮斯顿、布拉德·格雷任制片人。
  然而电影还没拍好,2006年Frey被曝出丑闻,这本市面上被归类为“自传”的书夹杂了很多不实信息,Frey对他的经历进行了修饰润色。此后Frey被批为“大骗子”,选这本书进入她创办的“奥普拉读书俱乐部”的主持人奥普拉·温弗瑞也称受到欺骗,电影项目也成了烫手山芋,几经波折。
  但故事本身确实很引人入胜,讲述男主角在一架飞往芝加哥的飞机上醒来,随后开始进行康复治疗。书中对挣扎在吸毒、酗酒、犯罪中的人、绝望的人的展现和剖析让人震撼。
Video
ID : 1
Format : AVC
Format/Info : Advanced Video Codec
Format profile : [email protected]
Format settings : CABAC / 4 Ref Frames
Format settings, CABAC : Yes
Format settings, Reference frames : 4 frames
Codec ID : V_MPEG4/ISO/AVC
Duration : 1 h 52 min
Bit rate mode : Constant
Bit rate : 2 234 kb/s
Nominal bit rate : 6 000 kb/s
Width : 1 248 pixels
Height : 520 pixels
Display aspect ratio : 2.40:1
Frame rate mode : Constant
Frame rate : 23.976 (24000/1001) FPS
Color space : YUV
Chroma subsampling : 4:2:0
Bit depth : 8 bits
Scan type : Progressive
Bits/(Pixel*Frame) : 0.144
Stream size : 1.76 GiB (78%)
Default : Yes
Forced : No
Color range : Limited
Color primaries : BT.709
Transfer characteristics : BT.709
Matrix coefficients : BT.709

Audio
ID : 2
Format : E-AC-3
Format/Info : Enhanced AC-3
Commercial name : Dolby Digital Plus
Codec ID : A_EAC3
Duration : 1 h 52 min
Bit rate mode : Constant
Bit rate : 640 kb/s
Channel(s) : 6 channels
Channel layout : L R C LFE Ls Rs
Sampling rate : 48.0 kHz
Frame rate : 31.250 FPS (1536 SPF)
Compression mode : Lossy
Stream size : 516 MiB (22%)
Language : English
Service kind : Complete Main
Default : Yes
Forced : No

Text #1
ID : 3
Format : UTF-8
Codec ID : S_TEXT/UTF8
Codec ID/Info : UTF-8 Plain Text
Duration : 1 h 51 min
Bit rate : 56 b/s
Count of elements : 1363
Stream size : 46.6 KiB (0%)
Language : English
Default : No
Forced : No

Text #2
ID : 4
Format : UTF-8
Codec ID : S_TEXT/UTF8
Codec ID/Info : UTF-8 Plain Text
Duration : 1 h 52 min
Bit rate : 59 b/s
Count of elements : 1449
Stream size : 48.9 KiB (0%)
Title : SDH
Language : English
Default : No
Forced : No





1 个附件 售价 大小 下载 时间

A.Million.Little.Pieces.2018.720p.AMZN.WEBRip.DDP5.1.x264-NTG.torrent 0 金币 23.18K 658 次 8月前

#1楼
发帖时间:2019-12-06 20:22:52   |   回复数:1
911degrees
隐世仙人♂
非常感谢,谢谢分享
8月前 #2楼
游客组