travismk
一代宗师

[2015] [欧美] [WEB-1080P] 每一件美好的小事 Every.Brilliant.Thing.2016.PROPER.1080p.WEBRip.x264-RARBG 1.17GB

-->

帖子完整标题:每一件美好的小事 Every.Brilliant.Thing.2016.PROPER.1080p.WEBRip.x264-RARBG 1.17GB



◎译  名 每一件美好的小事
◎片  名 Every Brilliant Thing
◎年  代 2015
◎产  地 美国
◎类  别 
◎语  言 英语
◎上映日期 
◎豆瓣评分 /10 from 0 users
◎豆瓣链接 https://movie.douban.com/subject/27045427/
◎导  演 Randy Barbato Randy Barbato

◎标  签 纪录片 | 传记 | 活着的勇气,生活,亲情,爱情,悲伤 | 美国电影 | 爱 | 活着 | 正能量 | 2015

◎简  介

  Every Brilliant Thing strikes a delicate balance between sobering loss and cathartic laughter. Adapting the hit off-Broadway one-character show of the same name written by Duncan Macmillan and starring British comedian Jonny Donahoe, the film recounts a life lived in the shadow of suicide.
  
  Emmy winners Fenton Bailey and Randy Barbato (HBO’s Mapplethorpe: Look at the Pictures and Wishful Drinking) produce and direct the heart-wrenching yet humorous presentation about depression and the lengths we will go to for those we love. In this acclaimed show, a young boy attempts to cure his mother’s depression by creating a list of the best things in the world. The list grows as he progresses from childhood (“Ice Cream”) and adolescence (“Star Trek”), to college (“Surprises”) and marriage (“Falling in Love”). But when life deals a bitter blow, the list proves to be helpful to the son in ways that it could never be for the mother.
  
  Filmed in 2015 at New York City’s Barrow Theatre, Every Brilliant Thing opens as Donahoe greets the arriving audience with hand-written notes instructing them to participate when called upon. He then proceeds to tell a story spanning nearly three decades and several life-changing events, starting with a young boy’s eye-opening first brush with death (his childhood dog), evoking laughter and tears in equal measure. Donahoe charms spectators into acting opposite him in various roles -- a veterinarian, his father, his college lecturer, his fiancée -- fostering an intimate sense of community through comic dialogues.
  
  First produced by Paines Plough and Pentabus Theatre Company, the stage production was performed at the 2013 Ludlow Fringe Festival in Great Britain, moving to the Edinburgh Fringe Festival in 2014. Its NYC run at the Barrow Theatre ended in March 2015. Star Jonny Donahoe received a Drama Desk Award nomination for his performance, and both he and writer Duncan Macmillan received Lucille Lortel Award nominations. Macmillan’s latest play is the Olivier Award-nominated People, Places and Things on the West End.
  
  Executive producer Jean Doumanian produced or executive produced seven Woody Allen films, including Bullets over Broadway and Sweet and Lowdown. Her other credits include the feature film August: Osage County and several Broadway productions, including August: Osage County and The Mountaintop. Additional feature films include UNA and Galveston.
  
  Every Brilliant Thing is produced and directed by Fenton Bailey and Randy Barbato; executive produced by Jean Doumanian and Patrick Daly; written by Duncan Macmillan with Jonny Donahoe; edited by Jason Blum; music composed by David Benjamin Steinberg. For HBO: executive producer, Sheila Nevins; supervising producer, Lisa Heller.

Video
ID : 1
Format : AVC
Format/Info : Advanced Video Codec
Format profile : [email protected]
Format settings : CABAC / 4 Ref Frames
Format settings, CABAC : Yes
Format settings, Reference frames : 4 frames
Codec ID : avc1
Codec ID/Info : Advanced Video Coding
Duration : 1 h 1 min
Bit rate : 2 500 kb/s
Width : 1 920 pixels
Height : 1 080 pixels
Display aspect ratio : 16:9
Frame rate mode : Constant
Frame rate : 23.976 (23976/1000/189150) FPS
Color space : YUV
Chroma subsampling : 4:2:0
Bit depth : 8 bits
Scan type : Progressive
Bits/(Pixel*Frame) : 0.050
Stream size : 1.07 GiB (92%)
Writing library : x264 core 152 r2851M ba24899
Encoding settings : cabac=1 / ref=4 / deblock=1:-1:-1 / analyse=0x3:0x113 / me=umh / subme=9 / psy=1 / psy_rd=1.00:0.15 / mixed_ref=1 / me_range=24 / chroma_me=1 / trellis=2 / 8x8dct=1 / cqm=0 / deadzone=21,11 / fast_pskip=1 / chroma_qp_offset=-3 / threads=16 / lookahead_threads=4 / sliced_threads=0 / nr=0 / decimate=1 / interlaced=0 / bluray_compat=0 / constrained_intra=0 / bframes=3 / b_pyramid=2 / b_adapt=2 / b_bias=0 / direct=3 / weightb=1 / open_gop=0 / weightp=2 / keyint=250 / keyint_min=25 / scenecut=40 / intra_refresh=0 / rc_lookahead=50 / rc=2pass / mbtree=1 / bitrate=2500 / ratetol=1.0 / qcomp=0.60 / qpmin=0 / qpmax=69 / qpstep=4 / cplxblur=20.0 / qblur=0.5 / vbv_maxrate=31250 / vbv_bufsize=31250 / nal_hrd=none / filler=0 / ip_ratio=1.40 / aq=3:1.00
Encoded date : UTC 2021-08-05 07:56:45
Tagged date : UTC 2021-08-05 07:56:45
Codec configuration box : avcC

Audio
ID : 2
Format : AAC LC
Format/Info : Advanced Audio Codec Low Complexity
Codec ID : mp4a-40-2
Duration : 1 h 1 min
Bit rate mode : Constant
Bit rate : 224 kb/s
Channel(s) : 2 channels
Channel layout : L R
Sampling rate : 48.0 kHz
Frame rate : 46.875 FPS (1024 SPF)
Compression mode : Lossy
Stream size : 98.7 MiB (8%)
Language : English
Default : Yes
Alternate group : 1
Encoded date : UTC 2021-08-05 07:56:45
Tagged date : UTC 2021-08-05 07:56:45





1 个附件 售价 大小 下载 时间

Every.Brilliant.Thing.2016.PROPER.1080p.WEBRip.x264-RARBG.torrent 0 金币 12.50K 203 次 1月前

#1楼
发帖时间:2021-08-05 17:16:28   |   回复数:0
游客组