squallzhao
武林盟主

[2020] [欧美] [动作] [BD-720P] 冰之启示录/极冻启示录 Apocalypse.of.Ice.2020.720p.BluRay.x264-UNVEiL 2.03GB

-->

帖子完整标题:冰之启示录/极冻启示录 Apocalypse.of.Ice.2020.720p.BluRay.x264-UNVEiL 2.03GB



◎译  名 冰之启示录/极冻启示录
◎片  名 Apocalypse of Ice
◎年  代 2020
◎产  地 美国
◎类  别 动作 / 科幻 / 冒险 / 灾难
◎语  言 英语
◎上映日期 2020-09-15(美国)
◎豆瓣评分 2.8/10 from 144 users
◎豆瓣链接 https://movie.douban.com/subject/35201563/
◎片  长 89分钟
◎主  演 汤姆·塞兹摩尔 Tom Sizemore
      艾米丽·布鲁姆 Emily Bloom

◎标  签 灾难 | 美国 | 科幻 | 2020 | 病毒 | 冰灾 | 电影 | 剧情

◎简  介

  已经处于病毒大流行期间,一个巨大的极地漩涡威胁着,几乎覆盖整个地球的冰层。当人们发现唯一能在寒冷中生存的地方,是赤道附近100英里的温带地区时,一个病毒学家,拥有这场流行病唯一的治愈方法,必须在24小时内到达安全地带,人类才有生存的希望。

Video
ID : 1
Format : AVC
Format/Info : Advanced Video Codec
Format profile : [email protected]
Format settings : CABAC / 8 Ref Frames
Format settings, CABAC : Yes
Format settings, Reference frames : 8 frames
Codec ID : V_MPEG4/ISO/AVC
Duration : 1 h 29 min
Bit rate : 2 614 kb/s
Width : 1 280 pixels
Height : 536 pixels
Display aspect ratio : 2.40:1
Frame rate mode : Constant
Frame rate : 23.976 (24000/1001/189150) FPS
Color space : YUV
Chroma subsampling : 4:2:0
Bit depth : 8 bits
Scan type : Progressive
Bits/(Pixel*Frame) : 0.159
Stream size : 1.63 GiB (80%)
Writing library : x264 core 164 r3065 ae03d92
Encoding settings : cabac=1 / ref=8 / deblock=1:-3:-3 / analyse=0x3:0x133 / me=umh / subme=9 / psy=1 / psy_rd=1.00:0.00 / mixed_ref=1 / me_range=16 / chroma_me=1 / trellis=2 / 8x8dct=1 / cqm=0 / deadzone=21,11 / fast_pskip=0 / chroma_qp_offset=-2 / threads=17 / lookahead_threads=1 / sliced_threads=0 / nr=0 / decimate=1 / interlaced=0 / bluray_compat=0 / constrained_intra=0 / bframes=3 / b_pyramid=2 / b_adapt=2 / b_bias=0 / direct=3 / weightb=1 / open_gop=0 / weightp=2 / keyint=250 / keyint_min=23 / scenecut=40 / intra_refresh=0 / rc_lookahead=60 / rc=crf / mbtree=1 / crf=17.0 / qcomp=0.60 / qpmin=0 / qpmax=69 / qpstep=4 / ip_ratio=1.40 / aq=1:1.00
Language : English
Default : Yes
Forced : No

Audio
ID : 2
Format : AC-3
Format/Info : Audio Coding 3
Commercial name : Dolby Digital
Codec ID : A_AC3
Duration : 1 h 29 min
Bit rate mode : Constant
Bit rate : 640 kb/s
Channel(s) : 6 channels
Channel layout : L R C LFE Ls Rs
Sampling rate : 48.0 kHz
Frame rate : 31.250 FPS (1536 SPF)
Compression mode : Lossy
Stream size : 409 MiB (20%)
Language : English
Service kind : Complete Main
Default : Yes
Forced : No

Text
ID : 3
Format : PGS
Muxing mode : zlib
Codec ID : S_HDMV/PGS
Codec ID/Info : Picture based subtitle format used on BDs/HD-DVDs
Duration : 1 h 23 min
Bit rate : 400 b/s
Count of elements : 36
Stream size : 244 KiB (0%)
Language : German
Default : No
Forced : No

Menu
00:00:00.000 : en:Chapter 01
00:09:45.210 : en:Chapter 02
00:21:24.158 : en:Chapter 03
00:27:07.084 : en:Chapter 04
00:38:50.954 : en:Chapter 05
00:58:19.246 : en:Chapter 06
01:03:06.825 : en:Chapter 07
01:10:53.666 : en:Chapter 08





1 个附件 售价 大小 下载 时间

Apocalypse.of.Ice.2020.720p.BluRay.x264-UNVEiL.torrent 0 金币 21.06K 861 次 1月前

#1楼
发帖时间:2021-08-05 19:30:38   |   回复数:0
游客组