fg603603
一代宗师

[更 早] [其他] [动作] [BD-4K] 幽灵之国的囚徒/鬼域之囚 Prisoners.of.the.Ghostland.2021.2160p.WEB-DL.x265.10bit.HDR.DD5.1-N

-->

帖子完整标题:幽灵之国的囚徒/鬼域之囚 Prisoners.of.the.Ghostland.2021.2160p.WEB-DL.x265.10bit.HDR.DD5.1-NOGRP 17.82GB



◎译  名 幽灵之国的囚徒/鬼域之囚/鬼域的囚徒
◎片  名 Prisoners Of The Ghostland
◎年  代 2021
◎产  地 美国,日本
◎类  别 动作 / 惊悚 / 恐怖
◎语  言 英语
◎上映日期 2021-01-31(圣丹斯电影节) / 2021-09-17(美国网络) / 2021-10-08(日本)
◎豆瓣评分 4.1/10 from 833 users
◎豆瓣链接 https://movie.douban.com/subject/30219722/
◎片  长 100分钟
◎导  演 园子温 Shion Sono
◎编  剧 Aaron Hendry Aaron Hendry / Reza Sixo Safai Reza Sixo Safai
◎主  演 尼古拉斯·凯奇 Nicolas Cage
      索菲亚·波多拉 Sofia Boutella
      尼克·卡萨维蒂 Nick Cassavetes
      比尔·莫斯利 Bill Moseley
      坂口拓 Tak Sakaguchi
      小川辉晃 Teruaki Ogawa
      马修·乔齐克 Matthew Chozick
      艾德·斯克林 Ed Skrein
      海 YOUNG DAIS
      栗原类 Louis Kurihara
      周传兮 Chuanxi Zhou
      萝拉 Rola
      特蕾莎·鲁伊斯 Teresa Ruiz
      中屋柚香 Nakaya Yuzuka
      渡边哲 Tetsu Watanabe
      藤丸千 Sen Fujimaru

◎标  签 园子温 | 尼古拉斯·凯奇 | 奇幻 | 日本 | 2021 | 惊悚 | 动作 | 恐怖

◎简  介

  故事讲述一名被绑架的女孩([波多拉饰])消失在了黑暗超自然宇宙中,臭名昭著的罪犯英雄(凯奇饰)被派去解救她。他们必须打破束缚他们的邪恶诅咒才能逃避统治鬼域的神秘幽灵。

Video
ID : 1
Format : HEVC
Format/Info : High Efficiency Video Coding
Format profile : Main [email protected]@High
HDR format : SMPTE ST 2086, HDR10 compatible
Codec ID : V_MPEGH/ISO/HEVC
Duration : 1 h 42 min
Bit rate : 24.5 Mb/s
Width : 3 832 pixels
Height : 1 592 pixels
Display aspect ratio : 2.40:1
Frame rate mode : Constant
Frame rate : 23.976 FPS
Color space : YUV
Chroma subsampling : 4:2:0 (Type 2)
Bit depth : 10 bits
Bits/(Pixel*Frame) : 0.167
Stream size : 17.5 GiB (98%)
Language : English
Default : Yes
Forced : No
Color range : Limited
Color primaries : BT.2020
Transfer characteristics : PQ
Matrix coefficients : BT.2020 non-constant
Mastering display color primaries : Display P3
Mastering display luminance : min: 0.0001 cd/m2, max: 1000 cd/m2
Maximum Content Light Level : 1017 cd/m2
Maximum Frame-Average Light Level : 398 cd/m2

Audio
ID : 2
Format : AC-3
Format/Info : Audio Coding 3
Commercial name : Dolby Digital
Codec ID : A_AC3
Duration : 1 h 42 min
Bit rate mode : Constant
Bit rate : 384 kb/s
Channel(s) : 6 channels
Channel layout : L R C LFE Ls Rs
Sampling rate : 48.0 kHz
Frame rate : 31.250 FPS (1536 SPF)
Compression mode : Lossy
Stream size : 282 MiB (2%)
Title : English
Language : English
Service kind : Complete Main
Default : No
Forced : No

Text
ID : 3
Format : UTF-8
Codec ID : S_TEXT/UTF8
Codec ID/Info : UTF-8 Plain Text
Duration : 1 h 35 min
Bit rate : 22 b/s
Count of elements : 715
Stream size : 16.0 KiB (0%)
Language : English
Default : Yes
Forced : No





1 个附件 售价 大小 下载 时间

Prisoners.of.the.Ghostland.2021.2160p.WEB-DL.x265.10bit.HDR.DD5.1-NOGRP.torrent 0 金币 22.94K 2772 次 1月前

#1楼
发帖时间:2021-09-19 12:59:42   |   回复数:1
blj2007
一派掌门
感谢分享,辛苦啦
1月前 #2楼
游客组