travismk
一代宗师

[更 早] [欧美] [剧情] [BD-4K] 天堂鸟 Birds.of.Paradise.2021.2160p.AMZN.WEB-DL.x265.10bit.HDR10Plus.DDP5.1.Atmos-N

-->

帖子完整标题:天堂鸟 Birds.of.Paradise.2021.2160p.AMZN.WEB-DL.x265.10bit.HDR10Plus.DDP5.1.Atmos-NOGRP 12.22GB



◎译  名 天堂鸟
◎片  名 Birds of Paradise
◎年  代 2021
◎产  地 美国
◎类  别 剧情 / 爱情 / 悬疑 / 同性
◎语  言 英语
◎上映日期 2021-09-24(美国网络)
◎豆瓣评分 /10 from 0 users
◎豆瓣链接 https://movie.douban.com/subject/34987857/
◎导  演 萨拉·阿迪纳·史密斯 Sarah Adina Smith
◎编  剧 A· K·斯莫尔斯 A.K. Smalls / 萨拉·阿迪纳·史密斯 Sarah Adina Smith
◎主  演 戴安娜·西尔弗斯 Diana Silvers
      克里斯汀·弗劳赛斯 Kristine Froseth
      卡罗琳·古多尔 Caroline Goodall
      杰奎琳·比塞特 Jacqueline Bisset
      埃莱娜·卡多纳 Hélène Cardona
      纳西姆·斯艾哈迈德 Nassim Si Ahmed
      罗杰·巴克莱 Roger Barclay
      斯特拉什科 Stav Strashko
      杰瑞米·惠勒 Jeremy Wheeler
      伊娃·博伊罗 Eva Lomby
      丹尼尔·卡马戈 Daniel Camargo
      爱丽丝·达登 Alice Dardenne
      所罗门·戈尔丁 Solomon Golding
      欧塞尔·古尼奥 Osiel Gouneo
      巴尔·瓦斯维尔斯 Balázs Veres

◎标  签 美国 | LGBT | LGBTQ | 2021 | 悬疑

◎简  介

  Kate Sanders (Diana Silvers) is an ambitious and gifted, if tomboyish, aspiring ballerina from Virginia who, because of her low-income status, is given a scholarship to attend a prestigious ballet school in Paris, France. Upon arriving at the cutthroat, internationally-renowned institution, her confidence and emotional fortitude are tested by a beautiful, mysterious fellow dancer, Marine Durand (Kristine Froseth), who recently lost her brother (and dance partner) to suicide. While confrontational at first, Kate and Marine’s relationship evolves into an emotionally-charged, competitive union beset by lies, sexual awakening and, ultimately, emotional breakthrough as they risk everything to win the school’s ultimate prize: a contract to join the Opéra national de Paris.

Video
ID : 1
Format : HEVC
Format/Info : High Efficiency Video Coding
Format profile : Main [email protected]@Main
HDR format : SMPTE ST 2094 App 4, Version 1, HDR10+ Profile B compatible
Codec ID : V_MPEGH/ISO/HEVC
Duration : 1 h 53 min
Bit rate : 15.0 Mb/s
Width : 3 840 pixels
Height : 1 600 pixels
Display aspect ratio : 2.40:1
Frame rate mode : Constant
Frame rate : 23.976 (24000/1001/189150) FPS
Color space : YUV
Chroma subsampling : 4:2:0
Bit depth : 10 bits
Bits/(Pixel*Frame) : 0.102
Stream size : 11.9 GiB (97%)
Default : Yes
Forced : No
Color range : Limited
Color primaries : BT.2020
Transfer characteristics : PQ
Matrix coefficients : BT.2020 non-constant
Mastering display color primaries : Display P3
Mastering display luminance : min: 0.0001 cd/m2, max: 1000 cd/m2
Maximum Content Light Level : 843 cd/m2
Maximum Frame-Average Light Level : 203 cd/m2

Audio
ID : 2
Format : E-AC-3 JOC
Format/Info : Enhanced AC-3 with Joint Object Coding
Commercial name : Dolby Digital Plus with Dolby Atmos
Codec ID : A_EAC3
Duration : 1 h 53 min
Bit rate mode : Constant
Bit rate : 448 kb/s
Channel(s) : 6 channels
Channel layout : L R C LFE Ls Rs
Sampling rate : 48.0 kHz
Frame rate : 31.250 FPS (1536 SPF)
Compression mode : Lossy
Stream size : 364 MiB (3%)
Title : English
Language : English
Service kind : Complete Main
Default : No
Forced : No
Complexity index : 16
Number of dynamic objects : 15
Bed channel count : 1 channel
Bed channel configuration : LFE

Text #1
ID : 3
Format : UTF-8
Codec ID : S_TEXT/UTF8
Codec ID/Info : UTF-8 Plain Text
Duration : 1 h 45 min
Bit rate : 37 b/s
Count of elements : 1120
Stream size : 29.4 KiB (0%)
Language : English
Default : Yes
Forced : No

Text #2
ID : 4
Format : UTF-8
Codec ID : S_TEXT/UTF8
Codec ID/Info : UTF-8 Plain Text
Duration : 1 h 52 min
Bit rate : 47 b/s
Count of elements : 1519
Stream size : 39.7 KiB (0%)
Title : SDH
Language : English
Default : No
Forced : No

Text #3
ID : 5
Format : UTF-8
Codec ID : S_TEXT/UTF8
Codec ID/Info : UTF-8 Plain Text
Duration : 1 h 52 min
Bit rate : 33 b/s
Count of elements : 1012
Stream size : 27.9 KiB (0%)
Language : Malay
Default : No
Forced : No

Text #4
ID : 6
Format : UTF-8
Codec ID : S_TEXT/UTF8
Codec ID/Info : UTF-8 Plain Text
Duration : 1 h 51 min
Bit rate : 33 b/s
Count of elements : 1011
Stream size : 27.1 KiB (0%)
Language : Danish
Default : No
Forced : No

Text #5
ID : 7
Format : UTF-8
Codec ID : S_TEXT/UTF8
Codec ID/Info : UTF-8 Plain Text
Duration : 1 h 52 min
Bit rate : 35 b/s
Count of elements : 1015
Stream size : 28.8 KiB (0%)
Language : German
Default : No
Forced : No

Text #6
ID : 8
Format : UTF-8
Codec ID : S_TEXT/UTF8
Codec ID/Info : UTF-8 Plain Text
Duration : 1 h 52 min
Bit rate : 33 b/s
Count of elements : 1008
Stream size : 27.8 KiB (0%)
Title : Espa?ol (Espa?a)
Language : Spanish
Default : No
Forced : No

Text #7
ID : 9
Format : UTF-8
Codec ID : S_TEXT/UTF8
Codec ID/Info : UTF-8 Plain Text
Duration : 1 h 52 min
Bit rate : 33 b/s
Count of elements : 1016
Stream size : 27.7 KiB (0%)
Title : Espa?ol (Latinoamérica)
Language : Spanish
Default : No
Forced : No

Text #8
ID : 10
Format : UTF-8
Codec ID : S_TEXT/UTF8
Codec ID/Info : UTF-8 Plain Text
Duration : 1 h 51 min
Bit rate : 35 b/s
Count of elements : 1009
Stream size : 29.0 KiB (0%)
Language : fil
Default : No
Forced : No

Text #9
ID : 11
Format : UTF-8
Codec ID : S_TEXT/UTF8
Codec ID/Info : UTF-8 Plain Text
Duration : 1 h 52 min
Bit rate : 30 b/s
Count of elements : 890
Stream size : 25.5 KiB (0%)
Language : French
Default : No
Forced : No

Text #10
ID : 12
Format : UTF-8
Codec ID : S_TEXT/UTF8
Codec ID/Info : UTF-8 Plain Text
Duration : 1 h 52 min
Bit rate : 33 b/s
Count of elements : 1012
Stream size : 27.4 KiB (0%)
Language : Indonesian
Default : No
Forced : No

Text #11
ID : 13
Format : UTF-8
Codec ID : S_TEXT/UTF8
Codec ID/Info : UTF-8 Plain Text
Duration : 1 h 51 min
Bit rate : 33 b/s
Count of elements : 1011
Stream size : 27.6 KiB (0%)
Language : Italian
Default : No
Forced : No

Text #12
ID : 14
Format : UTF-8
Codec ID : S_TEXT/UTF8
Codec ID/Info : UTF-8 Plain Text
Duration : 1 h 52 min
Bit rate : 36 b/s
Count of elements : 1013
Stream size : 29.7 KiB (0%)
Language : Hungarian
Default : No
Forced : No

Text #13
ID : 15
Format : UTF-8
Codec ID : S_TEXT/UTF8
Codec ID/Info : UTF-8 Plain Text
Duration : 1 h 51 min
Bit rate : 33 b/s
Count of elements : 1011
Stream size : 27.2 KiB (0%)
Language : Dutch
Default : No
Forced : No

Text #14
ID : 16
Format : UTF-8
Codec ID : S_TEXT/UTF8
Codec ID/Info : UTF-8 Plain Text
Duration : 1 h 52 min
Bit rate : 33 b/s
Count of elements : 1012
Stream size : 27.6 KiB (0%)
Language : Norwegian Bokmal
Default : No
Forced : No

Text #15
ID : 17
Format : UTF-8
Codec ID : S_TEXT/UTF8
Codec ID/Info : UTF-8 Plain Text
Duration : 1 h 51 min
Bit rate : 32 b/s
Count of elements : 1013
Stream size : 26.5 KiB (0%)
Language : Polish
Default : No
Forced : No

Text #16
ID : 18
Format : UTF-8
Codec ID : S_TEXT/UTF8
Codec ID/Info : UTF-8 Plain Text
Duration : 1 h 52 min
Bit rate : 34 b/s
Count of elements : 1002
Stream size : 28.1 KiB (0%)
Title : Português (Brasil)
Language : Portuguese
Default : No
Forced : No

Text #17
ID : 19
Format : UTF-8
Codec ID : S_TEXT/UTF8
Codec ID/Info : UTF-8 Plain Text
Duration : 1 h 52 min
Bit rate : 33 b/s
Count of elements : 1009
Stream size : 27.7 KiB (0%)
Title : Português (Portugal)
Language : Portuguese
Default : No
Forced : No

Text #18
ID : 20
Format : UTF-8
Codec ID : S_TEXT/UTF8
Codec ID/Info : UTF-8 Plain Text
Duration : 1 h 52 min
Bit rate : 34 b/s
Count of elements : 1013
Stream size : 28.0 KiB (0%)
Language : Romanian
Default : No
Forced : No

Text #19
ID : 21
Format : UTF-8
Codec ID : S_TEXT/UTF8
Codec ID/Info : UTF-8 Plain Text
Duration : 1 h 52 min
Bit rate : 33 b/s
Count of elements : 1013
Stream size : 27.2 KiB (0%)
Language : Finnish
Default : No
Forced : No

Text #20
ID : 22
Format : UTF-8
Codec ID : S_TEXT/UTF8
Codec ID/Info : UTF-8 Plain Text
Duration : 1 h 51 min
Bit rate : 31 b/s
Count of elements : 1010
Stream size : 25.7 KiB (0%)
Language : Swedish
Default : No
Forced : No

Text #21
ID : 23
Format : UTF-8
Codec ID : S_TEXT/UTF8
Codec ID/Info : UTF-8 Plain Text
Duration : 1 h 52 min
Bit rate : 33 b/s
Count of elements : 1016
Stream size : 27.8 KiB (0%)
Language : Turkish
Default : No
Forced : No

Text #22
ID : 24
Format : UTF-8
Codec ID : S_TEXT/UTF8
Codec ID/Info : UTF-8 Plain Text
Duration : 1 h 52 min
Bit rate : 32 b/s
Count of elements : 1021
Stream size : 26.9 KiB (0%)
Language : Czech
Default : No
Forced : No

Text #23
ID : 25
Format : UTF-8
Codec ID : S_TEXT/UTF8
Codec ID/Info : UTF-8 Plain Text
Duration : 1 h 52 min
Bit rate : 62 b/s
Count of elements : 1019
Stream size : 51.7 KiB (0%)
Language : Greek
Default : No
Forced : No

Text #24
ID : 26
Format : UTF-8
Codec ID : S_TEXT/UTF8
Codec ID/Info : UTF-8 Plain Text
Duration : 1 h 52 min
Bit rate : 56 b/s
Count of elements : 1023
Stream size : 46.4 KiB (0%)
Language : Russian
Default : No
Forced : No

Text #25
ID : 27
Format : UTF-8
Codec ID : S_TEXT/UTF8
Codec ID/Info : UTF-8 Plain Text
Duration : 1 h 52 min
Bit rate : 54 b/s
Count of elements : 1024
Stream size : 44.8 KiB (0%)
Language : Hebrew
Default : No
Forced : No

Text #26
ID : 28
Format : UTF-8
Codec ID : S_TEXT/UTF8
Codec ID/Info : UTF-8 Plain Text
Duration : 1 h 52 min
Bit rate : 55 b/s
Count of elements : 1024
Stream size : 46.1 KiB (0%)
Language : Arabic
Default : No
Forced : No

Text #27
ID : 29
Format : UTF-8
Codec ID : S_TEXT/UTF8
Codec ID/Info : UTF-8 Plain Text
Duration : 1 h 52 min
Bit rate : 85 b/s
Count of elements : 1024
Stream size : 70.0 KiB (0%)
Language : Hindi
Default : No
Forced : No

Text #28
ID : 30
Format : UTF-8
Codec ID : S_TEXT/UTF8
Codec ID/Info : UTF-8 Plain Text
Duration : 1 h 52 min
Bit rate : 87 b/s
Count of elements : 1024
Stream size : 72.0 KiB (0%)
Language : Tamil
Default : No
Forced : No

Text #29
ID : 31
Format : UTF-8
Codec ID : S_TEXT/UTF8
Codec ID/Info : UTF-8 Plain Text
Duration : 1 h 52 min
Bit rate : 82 b/s
Count of elements : 1024
Stream size : 67.6 KiB (0%)
Language : Telugu
Default : No
Forced : No

Text #30
ID : 32
Format : UTF-8
Codec ID : S_TEXT/UTF8
Codec ID/Info : UTF-8 Plain Text
Duration : 1 h 52 min
Bit rate : 89 b/s
Count of elements : 1024
Stream size : 74.0 KiB (0%)
Language : Thai
Default : No
Forced : No

Text #31
ID : 33
Format : UTF-8
Codec ID : S_TEXT/UTF8
Codec ID/Info : UTF-8 Plain Text
Duration : 1 h 52 min
Bit rate : 31 b/s
Count of elements : 1024
Stream size : 25.8 KiB (0%)
Title : 中文(简体)
Language : Chinese
Default : No
Forced : No

Text #32
ID : 34
Format : UTF-8
Codec ID : S_TEXT/UTF8
Codec ID/Info : UTF-8 Plain Text
Duration : 1 h 52 min
Bit rate : 30 b/s
Count of elements : 1024
Stream size : 25.3 KiB (0%)
Title : 中文(繁體)
Language : Chinese
Default : No
Forced : No

Text #33
ID : 35
Format : UTF-8
Codec ID : S_TEXT/UTF8
Codec ID/Info : UTF-8 Plain Text
Duration : 1 h 52 min
Bit rate : 32 b/s
Count of elements : 960
Stream size : 27.1 KiB (0%)
Language : Japanese
Default : No
Forced : No

Text #34
ID : 36
Format : UTF-8
Codec ID : S_TEXT/UTF8
Codec ID/Info : UTF-8 Plain Text
Duration : 1 h 52 min
Bit rate : 39 b/s
Count of elements : 1024
Stream size : 32.9 KiB (0%)
Language : Korean
Default : No
Forced : No

Menu
00:00:00.000 : 1. Amazon Studios
00:00:21.000 : Scene 2
00:00:46.000 : 3. Title Sequence
00:01:04.000 : Scene 4
00:02:42.000 : 5. Opening Credits
00:03:16.000 : Scene 6
00:07:38.000 : Scene 7
00:09:03.000 : Scene 8
00:09:23.000 : Scene 9
00:13:17.000 : Scene 10
00:16:19.000 : Scene 11
00:19:33.000 : Scene 12
00:22:44.000 : Scene 13
00:24:12.000 : Scene 14
00:25:45.000 : Scene 15
00:27:16.000 : Scene 16
00:31:18.000 : Scene 17
00:33:48.000 : Scene 18
00:36:40.000 : Scene 19
00:39:42.000 : Scene 20
00:44:49.000 : Scene 21
00:47:59.000 : Scene 22
00:48:18.000 : Scene 23
00:50:21.000 : Scene 24
00:50:55.000 : Scene 25
00:51:27.000 : Scene 26
00:53:42.000 : Scene 27
00:58:42.000 : Scene 28
01:06:07.000 : Scene 29
01:08:12.000 : Scene 30
01:08:57.000 : Scene 31
01:10:04.000 : Scene 32
01:11:38.000 : Scene 33
01:12:35.000 : Scene 34
01:14:08.000 : Scene 35
01:16:54.000 : Scene 36
01:17:06.000 : Scene 37
01:18:17.000 : Scene 38
01:18:40.000 : Scene 39
01:19:12.000 : Scene 40
01:21:05.000 : Scene 41
01:22:51.000 : Scene 42
01:24:39.000 : Scene 43
01:26:17.000 : Scene 44
01:27:49.000 : Scene 45
01:29:57.000 : Scene 46
01:30:48.000 : Scene 47
01:36:37.000 : Scene 48
01:39:40.000 : Scene 49
01:41:28.000 : Scene 50
01:43:39.000 : Scene 51
01:47:49.000 : 52. End Credits





1 个附件 售价 大小 下载 时间

Birds.of.Paradise.2021.2160p.AMZN.WEB-DL.x265.10bit.HDR10Plus.DDP5.1.Atmos-NOGRP.torrent 0 金币 15.96K 1015 次 29天前

#1楼
发帖时间:2021-09-24 13:04:34   |   回复数:0
游客组